Скачать через торрент Союз Серокрылых Haibane Renmei бесплатно Аниме Все серии на русском torrent

Если у вас наблюдаются проблемы со скриншотами, переходом по ссылками, скачиванием торрентов - проблемы в блокировщике рекламы AdBlock. #хорошегоДня!


Статистика раздачи
Размер:  88.8 GB   |    Зарегистрирован:  1 год 8 месяцев   |    .torrent скачан:  14 раз   |   
Раздают:  1  
   
Загрузка...
 
Автор Сообщение

Galfimbul

avatar Galfimbul


Союз Серокрылых / Haibane Renmei / Альянс Пепельнокрылых / Charcoal Feather Federation

Страна: Япония
Год выпуска: 2002 г.
Жанр: драма, психологический, мистика, повседневность, фэнтези
Тип: TV
Продолжительность: 13 эп. по ~ 25 мин.
Режиссер: Tokoro Tomokazu
Студия: Radix

Описание:
Эта история начинается с падения – сквозь облака, из ниоткуда в никуда, и непонятно, сон это или воспоминание... Главная героиня просыпается и видит девушек с крыльями пепельного цвета и нимбами. Она не знает, кто она, и что с ней было раньше, и помнит только падение, поэтому получает имя «Ракка» – «Падающая». Имена других девушек тоже обозначают видение, которое они пережили перед тем, как родились – вернее, вышли из кокона, выросшего в Старом Доме.
В городе Гли рядом с обычными людей живут Серокрылые, обязанные выполнять свод строгих правил. Главное правило: не приближаться к Стене, окружающей город. Ракка получает нимб и учится обращаться с крыльями. Каждый день она открывает для себя что-то новое в этом мире – и постоянно сталкивается с загадками существования Серокрылых. Зачем им крылья, если они не умеют летать? Почему им запрещено носить новую одежду и пользоваться деньгами? Куда они уходят, и с чем связан их уход? Не меньшей тайной являются её соседки, особенно грубоватая Рэки, помогающая Ракке освоиться в Старом Доме. Возможно, для понимания Серокрылых следует забыть о сложных вопросах бытия и сосредоточиться на каждодневных делах, разобраться в себе и стать опорой для того, кто нуждается в сочувствии и поддержке...

«Союз Серокрылых» – один из самых загадочных и многозначных сериалов. Его символика и смысловое наполнение позволяет каждому зрителю найти своё собственное объяснение.
© Расселл Д. Джонс, World Art

Доп. информация: anidb

Качество: BDRemux
Тип релиза: Без хардсаба
Формат видео: MKV
Наличие линковки: Нет
Видео: AVC, High@L4.1, 16:9, 1980х1020, 8 bits, MBAFF (Interleaved fields), 37.9 Mbps, 29.970 fps
Аудио: PCM, 1 536 Kbps, 48.0 KHz, 2 channels (stereo) Язык Японский
Субтитры: ass, встроенные в контейнер Язык субтитров: русский ; Перевод: Reanimedia
GeneralUnique ID : 196770489116215840200468260683017308211 (0x94089E22A3D648ADB1CCCE2D13A74833)Complete name : /Volumes/My_torrents/Haibane Renmei [TV]_[13 of 13]_[2002_BDRemux]_[1080i]_[RuTracker]/1.Cocoon_Dream of Falling from the Sky_Old Home.mkvFormat : MatroskaFormat version : Version 4 / Version 2File size : 6.33 GiBDuration : 22mn 58sOverall bit rate mode : VariableOverall bit rate : 39.4 MbpsEncoded date : UTC 2016-03-31 07:05:52Writing application : mkvmerge v9.0.1 ('Obstacles') 64bitWriting library : libebml v1.3.3 + libmatroska v1.4.4

VideoID : 1Format : AVCFormat/Info : Advanced Video CodecFormat profile : High@L4.1Format settings, CABAC : YesFormat settings, ReFrames : 4 framesCodec ID : V_MPEG4/ISO/AVCDuration : 22mn 58sBit rate mode : VariableBit rate : 37.9 MbpsMaximum bit rate : 39.0 MbpsWidth : 1 920 pixelsHeight : 1 080 pixelsDisplay aspect ratio : 16:9Frame rate mode : ConstantFrame rate : 29.970 (30000/1001) fpsColor space : YUVChroma subsampling : 4:2:0Bit depth : 8 bitsScan type : MBAFFScan type, store method : Interleaved fieldsScan order : Top Field FirstBits/(Pixel*Frame) : 0.610Stream size : 6.08 GiB (96%)Language : JapaneseDefault : YesForced : NoColor range : LimitedColor primaries : BT.709Transfer characteristics : BT.709Matrix coefficients : BT.709

AudioID : 2Format : PCMCodec ID : A_PCM/INT/LITDuration : 22mn 58sBit rate mode : ConstantBit rate : 1 536 KbpsChannel(s) : 2 channelsSampling rate : 48.0 KHzFrame rate : 200.000 fps (240 spf)Bit depth : 16 bitsStream size : 252 MiB (4%)Title : PCM 2.0 (48/16)Language : JapaneseDefault : YesForced : No

TextID : 3Format : ASSCodec ID : S_TEXT/ASSCodec ID/Info : Advanced Sub Station AlphaDuration : 22mn 29sBit rate : 145 bpsCount of elements : 297Compression mode : LosslessStream size : 24.0 KiB (0%)Title : ReanimediaLanguage : RussianDefault : YesForced : No
1 Cocoon / Dream of Falling from the Sky / Old Home 25m 10.10.2002
2 Town and Wall / Toga / Haibane Renmei 25m 24.10.2002
3 Temple / Communicator / Pancakes 25m 07.11.2002
4 Trash Day / Clock Tower / Birds Flying over the Walls 25m 14.11.2002
5 Library / Abandoned Factory / The Beginning of the World 25m 21.11.2002
6 End of Summer / Rain / Loss 25m 28.11.2002
7 Scar / Illness / Arrival of Winter 25m 28.11.2002
8 The Bird 25m 05.12.2002
9 Well / Rebirth / Riddle 25m 05.12.2002
10 Kuramori / Haibane of Abandoned Factory / Rakka`s Job 25m 12.12.2002
11 Parting / Darkness in the Heart / Irreplaceable Thing 25m 12.12.2002
12 Bell Nuts / Passing of the Year Festival / Reconciliation 25m 19.12.2002
13 Reki`s World / Prayer / Epilogue 25m 19.12.2002
<a href="viewtopic.php?t=4601802" class="postLink">...4601802</a>
<a href="viewtopic.php?t=3158707" class="postLink">...3158707</a>
Тут BDRemux...
Будут...


Трекер:  [ 31-Мар-2016 12:30 ]

  

Скачать .torrent

Размер .torrent файла 446 KB


Размер: 88.8 GB
Хэш (hash) релиза: d3938f9df3dfaa28d6866165def6f85682bb0a7f
Подписка на обновления:

Еще никто не оставлял запись к записи скачать торрент Союз Серокрылых Haibane Renmei . Будь первым!

!Обратная связь