Скачать через торрент Тупарень ~Мой парень — идиот~ Kare Baka ~Wagahai no Kare wa Baka de R~ бесплатно Аниме Все серии на русском torrent

Если у вас наблюдаются проблемы со скриншотами, переходом по ссылками, скачиванием торрентов - проблемы в блокировщике рекламы AdBlock. #хорошегоДня!


Статистика раздачи
Размер:  181 MB   |    Зарегистрирован:  1 год 5 месяцев   |    .torrent скачан:  10 раз   |   
Раздают:  1  
   
Загрузка...
 
Автор Сообщение

Galfimbul

avatar Galfimbul


Тупарень ~Мой парень — идиот~ / Kare Baka ~Wagahai no Kare wa Baka de R~

Страна: Япония
Год выпуска: 2015 г.
Жанр: комедия, повседневность, романтика
Тип: ONA
Продолжительность: 8 эп. по 5 мин.
Режиссер: Секи Акико
Студия: Sakura Create

Описание: История вращается вокруг девушки по имени Акоми и ее парня Ниномии Понты и описывает эпизоды из их повседневной жизни. Ниномия - идиот, каких еще поискать, но этот его "маленький" недостаток полностью перекрывает ослепительная внешность парня.

Качество: WEBRip
Тип релиза: Без хардсаба
Формат видео: MР4
Наличие линковки: Нет
Релиз/Автор рипа: Otaku News!!
Видео: H264, 1280x720, 8bits, 1994kbps, 25.000fps
Аудио: AAC, 2ch, 128kbps, 44.1kHz Язык Японский
Субтитры: ass, отдельным файлом Язык субтитров русский ; Перевод: Xellos Slayer ; Редактор: Kasandra + sys3x (Eternal HARO & Shojosei)
Format profile : Base MediaCodec ID : isomFile size : 81.6 MiBDuration : 5mn 21sOverall bit rate mode : VariableOverall bit rate : 2 129 KbpsWriting application : Lavf56.36.100

VideoID : 1Format : AVCFormat/Info : Advanced Video CodecFormat profile : High@L3.1Format settings, CABAC : YesFormat settings, ReFrames : 5 framesCodec ID : avc1Codec ID/Info : Advanced Video CodingDuration : 5mn 21sBit rate : 2 000 KbpsWidth : 1 280 pixelsHeight : 720 pixelsDisplay aspect ratio : 16:9Frame rate mode : ConstantFrame rate : 25.000 fpsColor space : YUVChroma subsampling : 4:2:0Bit depth : 8 bitsScan type : ProgressiveBits/(Pixel*Frame) : 0.087Stream size : 76.4 MiB (94%)Writing library : x264 core 146 r2538 121396cEncoding settings : cabac=1 / ref=5 / deblock=1:0:0 / analyse=0x3:0x113 / me=umh / subme=8 / psy=1 / psy_rd=1.00:0.00 / mixed_ref=1 / me_range=8 / chroma_me=1 / trellis=1 / 8x8dct=1 / cqm=0 / deadzone=21,11 / fast_pskip=1 / chroma_qp_offset=-2 / threads=4 / lookahead_threads=1 / sliced_threads=0 / nr=0 / decimate=1 / interlaced=0 / bluray_compat=0 / constrained_intra=0 / bframes=3 / b_pyramid=2 / b_adapt=2 / b_bias=0 / direct=3 / weightb=1 / open_gop=0 / weightp=2 / keyint=250 / keyint_min=25 / scenecut=40 / intra_refresh=0 / rc_lookahead=50 / rc=2pass / mbtree=1 / bitrate=2000 / ratetol=1.0 / qcomp=0.60 / qpmin=0 / qpmax=69 / qpstep=4 / cplxblur=20.0 / qblur=0.5 / vbv_maxrate=3000 / vbv_bufsize=8000 / nal_hrd=none / filler=0 / ip_ratio=1.40 / aq=1:1.00

AudioID : 2Format : AACFormat/Info : Advanced Audio CodecFormat profile : LCCodec ID : 40Duration : 5mn 21sDuration_LastFrame : -18msBit rate mode : VariableBit rate : 128 KbpsMaximum bit rate : 3 000 KbpsChannel count : 2 channelsChannel positions : Front: L RSampling rate : 44.1 KHzCompression mode : LossyDelay relative to video : 80msStream size : 4.90 MiB (6%)
1. Ниномия и его девушка Акоми!
2. Ниномия и планы на будущее Земли!


Трекер:  [ 30-Мар-2016 16:00 ]

  

Скачать .torrent

Размер .torrent файла 15 KB


Размер: 181 MB
Хэш (hash) релиза: 23ebbdc1867ee979169c69962b7d4fbe65d83917
Подписка на обновления:

Торренты, похожие на Тупарень ~Мой парень — идиот~ Kare Baka ~Wagahai no Kare wa Baka de R~ скачать торрент

Форум Название Автор Размер S L Добавлен
Аниме | HD Rips ·· Тупарень ~Мой парень — идиот~ / Kare Baka ~Wagahai no Kare wa Baka de R~ / Kare Baka: Wagahai no Kare wa Baka de Aru (Секи Акико) [ONA] [01-08 из 08] [без хардсаба] [RUS(int), JAP+SUB] [2015 г., комедия, повседневность, романтика, WEBRip] [720p] Galfimbul 681521082650 MB 0 0 1467473769

18:36

2-Июл-16

Аниме | HD Rips ·· Тупарень ~Мой парень — идиот~ / Kare Baka ~Wagahai no Kare wa Baka de R~ / Kare Baka: Wagahai no Kare wa Baka de Aru [ONA] [8 из 8] [Без хардсаба] [JAP, SUB] [2015 г., комедия, повседневность, романтика, WEBRip] [720p] Galfimbul 617798977589 MB 0 0 1467387201

18:33

1-Июл-16

Аниме | HD Rips ·· Тупарень ~Мой парень — идиот~ / Kare Baka ~Wagahai no Kare wa Baka de R~ / Kare Baka: Wagahai no Kare wa Baka de Aru (Секи Акико) [ONA] [01-06 из 12] [без хардсаба] [RUS(int), JAP+SUB] [2015 г., комедия, повседневность, романтика, WEBRip] [720p] Galfimbul 509652455486 MB 0 0 1467221155

20:25

29-Июн-16

Аниме | HD Rips ·· Тупарень ~Мой парень — идиот~ / Kare Baka ~Wagahai no Kare wa Baka de R~ / Kare Baka: Wagahai no Kare wa Baka de Aru (Секи Акико) [ONA] [01-04 из 12] [без хардсаба] [RUS(int), JAP+SUB] [2015 г., комедия, повседневность, романтика, WEBRip] [720p] Galfimbul 346134828330 MB 0 0 1462378424

19:13

4-Май-16

Аниме | Rips ·· Тупарень! ~Мой парень — идиот~ / Kare Baka ~Wagahai no Kare wa Baka de R~ / Kare Baka: Wagahai no Kare wa Baka de Aru [ONA] [1-4 из 8] [Без хардсаба] [RUS(int), JAP] [2015 г., комедия, романтика, WEBRip] [720p] Galfimbul 345756102330 MB 0 0 1462365052

15:30

4-Май-16

Аниме | HD Rips ·· Тупарень ~Мой парень — идиот~ / Kare Baka ~Wagahai no Kare wa Baka de R~ / Kare Baka: Wagahai no Kare wa Baka de Aru [ONA] [4 из 8] [Без хардсаба] [JAP, SUB] [2015 г., комедия, повседневность, романтика, WEBRip] [720p] Galfimbul 311905779297 MB 0 0 1462223009

00:03

3-Май-16

Аниме | HD Rips ·· Тупарень ~Мой парень — идиот~ / Kare Baka ~Wagahai no Kare wa Baka de R~ / Kare Baka: Wagahai no Kare wa Baka de Aru (Секи Акико) [ONA] [01-03 из 12] [без хардсаба] [RUS(int), JAB+SUB] [2015 г., комедия, повседневность, романтика, WEBRip] [720p] Galfimbul 270865357258 MB 0 0 1460740505

20:15

15-Апр-16

Аниме | Rips ·· Тупарень! ~Мой парень — идиот~ / Kare Baka ~Wagahai no Kare wa Baka de R~ / Kare Baka: Wagahai no Kare wa Baka de Aru [ONA] [1 из 12] [Без хардсаба] [RUS(int), JAP] [2015 г., комедия, романтика, WEBRip] [720p] Galfimbul 9309878189 MB 0 0 1449617384

02:29

9-Дек-15

Аниме | Rips ·· Тупарень! ~Мой парень — идиот~ / Kare Baka ~Wagahai no Kare wa Baka de R~ / Kare Baka: Wagahai no Kare wa Baka de Aru [ONA] [1 из 12] [Без хардсаба] [RUS(int), JAP] [2015 г., комедия, школа, романтика, WEBRi Galfimbul 128469219123 MB 0 0 1449599368

21:29

8-Дек-15

Аниме | HD Rips ·· Тупарень ~Мой парень — идиот~ / Kare Baka ~Wagahai no Kare wa Baka de R~ / Kare Baka: Wagahai no Kare wa Baka de Aru (Секи Акико) [ONA] [01 из 12] [без хардсаба] [RUS(int), JAB+SUB] [2015 г., комедия, повседневность, романтика, WEBRip] [720p] Galfimbul 9566964791 MB 0 0 1449169742

22:09

3-Дек-15

Еще никто не оставлял запись к записи скачать торрент Тупарень ~Мой парень — идиот~ Kare Baka ~Wagahai no Kare wa Baka de R~ . Будь первым!

!Обратная связь