Скачать через торрент Идолмастер Ксеноглоссия Idolmaster Xenoglossia бесплатно Аниме Все серии на русском torrent

Если у вас наблюдаются проблемы со скриншотами, переходом по ссылками, скачиванием торрентов - проблемы в блокировщике рекламы AdBlock. #хорошегоДня!


Статистика раздачи
Размер:  25.25 GB   |    Зарегистрирован:  1 год 6 месяцев   |    .torrent скачан:  65 раз   |   
Раздают:  1  
   
Загрузка...
 
Автор Сообщение

Galfimbul

avatar Galfimbul


Идолмастер Ксеноглоссия / Idolmaster Xenoglossia

Страна: Япония
Год выпуска: 2007 г.
Жанр: приключения, фантастика, меха
Тип: TV
Продолжительность: 26 эп, ~25 мин. серия
Режиссер: Нагай Тацуюки

Описание: писание: Любителям девочек и роботов посвящается, и того и другого присутствует в избытке...
В далекие, далекие времена, на Землю чуть не упала Луна,
Разбилась на части, такая беда... )
И все бы было хорошо, но эти самые части кружат по орбите, время от времени падая на землю, грозя уничтожением городам и селам...
Для поимки этих обломков организуется команда супер-девочек на больших роботах. И были бы тяжелы и монотонны будни этих разнесчастных девочек, если бы все это не было разбавлено решением проблем как то:
- роботы тоже люди!?
- любовь морковь между девочками и роботами (да, да не падайте в обморок)
- появлением команды злых девочек-конкуренток...

Доп. информация: Качество TV-Rip. Перевод с английского и озвучивание от "Девушки" из Project JD по заказу компании Animegroup в 2007-2008 году.

Качество: DVD5
Формат экрана: 16:9
Система / Разрешение: NTSC (720x480)
Средний битрейт: 4 589 Kbps
Аудио: AC-3, 192 Kbps, 2 channels Язык Русский
Аудио 2: PCM, 1 536 Kbps, 2 channels Язык Японский
Язык субтитров: русский
GeneralComplete name : D:\Films\Idolomaster\1\VIDEO_TS\VTS_02_1.VOBFormat : MPEG-PSFile size : 1 024 MiBDuration : 22mn 12sOverall bit rate mode : VariableOverall bit rate : 6 445 Kbps

VideoID : 224 (0xE0)Format : MPEG VideoFormat version : Version 2Format profile : Main@MainFormat settings, BVOP : YesFormat settings, Matrix : DefaultFormat settings, GOP : M=3, N=15Format settings, picture st : FrameDuration : 22mn 12sBit rate mode : VariableBit rate : 4 589 KbpsMaximum bit rate : 8 000 KbpsWidth : 720 pixelsHeight : 480 pixelsDisplay aspect ratio : 16:9Frame rate : 29.970 fpsStandard : NTSCColor space : YUVChroma subsampling : 4:2:0Bit depth : 8 bitsScan type : InterlacedScan order : Bottom Field FirstCompression mode : LossyBits/(Pixel*Frame) : 0.443Time code of first frame : 00:00:00:00Time code source : Group of pictures headerGOP, Open/Closed : OpenGOP, Open/Closed of first f : ClosedStream size : 729 MiB (71%)

Audio #1ID : 189 (0xBD)-128 (0x80)Format : AC-3Format/Info : Audio Coding 3Mode extension : CM (complete main)Format settings, Endianness : BigMuxing mode : DVD-VideoDuration : 22mn 12sBit rate mode : ConstantBit rate : 192 KbpsChannel(s) : 2 channelsChannel positions : Front: L RSampling rate : 48.0 KHzCompression mode : LossyStream size : 30.5 MiB (3%)

Audio #2ID : 189 (0xBD)-161 (0xA1)Format : PCMFormat settings, Endianness : BigFormat settings, Sign : SignedMuxing mode : DVD-VideoDuration : 22mn 12sBit rate mode : ConstantBit rate : 1 536 KbpsChannel(s) : 2 channelsSampling rate : 48.0 KHzBit depth : 16 bitsStream size : 244 MiB (24%)

Menu


Трекер:  [ 29-Мар-2016 20:30 ]

  

Скачать .torrent

Размер .torrent файла 72 KB


Размер: 25.25 GB
Хэш (hash) релиза: 90b7bf49c16f945cf65c3f489f9440b02a231ec3
Подписка на обновления:

Еще никто не оставлял запись к записи скачать торрент Идолмастер Ксеноглоссия Idolmaster Xenoglossia . Будь первым!

!Обратная связь