Скачать через торрент музыку Оригинальные саундтреки к фильмам Серджио ЛеонеLe Colonne Sonore Originali Dei Film Di Sergio Leone бесплатно без регистрации torrent

Если у вас наблюдаются проблемы со скриншотами, переходом по ссылками, скачиванием торрентов - проблемы в блокировщике рекламы AdBlock. #хорошегоДня!


Статистика раздачи
Размер:  328 MB   |    Зарегистрирован:  1 год 5 месяцев   |    .torrent скачан:  26 раз   |   
Раздают:  1  
   
Загрузка...
 
Автор Сообщение

Galfimbul

avatar Galfimbul


За пригоршню долларов/На несколько долларов больше/Хороший, плохой, злой/Однажды на Диком Западе/За пригоршню динамита/Однажды в Америке
Per Un Pugno Di Dollari/Per Qualche Dollaro In Più/Il Buono, Il Brutto, Il Cattivo/C'era Una Volta Il West/Giù La Testa/C'era Una Volta In America

Название альбома: Le Colonne Sonore Originali Dei Film Di Sergio Leone
Жанр: Score
Композитор: Ennio Morricone
Год выпуска диска: 1989
Год выпуска фильма: 1964/1965/1966/1968/1971/1983
Страна-производитель диска: Italy
Издатель (лейбл): RCA
Номер по каталогу: ND 71928
Аудиокодек: APE (*.ape)
Тип рипа: tracks+.cue
Битрейт аудио: lossless
Продолжительность: 70:50
Источник: собственный рип
Наличие сканов в содержимом раздачи: да
Треклист:
Per Un Pugno Di Dollari
1 Titoli 2:56
2 Per Un Pugno Di Dollari 1:47
Per Qualche Dollaro In Più
3 La Resa Dei Conti 3:04
4 Il Vizio Di Uccidere 2:25
5 Addio Colonnello 1:44
6 Per Qualche Dollaro In Più 2:49
Il Buono, Il Brutto, Il Cattivo
7 Titoli Di Testa 2:38
8 Il Forte 2:17
9 Storia Di Un Soldato 3:50
10 L'estasi Dell'oro 3:20
11 Il Triello (Titoli Finali) 4:55
C'era Una Volta Il West
12 Titoli 3:41
13 Come Una Sentenza 3:05
14 Addio A Cheyenne 2:35
15 L'uomo Dell'armonica 3:26
16 Finale 4:08
Giù La Testa
17 Titoli 4:15
18 Mesa Verde 1:38
19 Dopo L'esplosione 3:21
C'era Una Volta In America
20 C'era Una Volta In America 2:12
21 Tema Di Deborah 4:23
22 Canzone Di Cockeye 4:19
23 Amici 1:33
Exact Audio Copy V1.0 beta 6 from 9. April 2015

EAC extraction logfile from 22. March 2016, 23:26

Ennio Morricone / Le colonne sonore originali dei film di Sergio Leone

Used drive : Optiarc DVD RW AD-7200S Adapter: 1 ID: 1

Read mode : SecureUtilize accurate stream : YesDefeat audio cache : YesMake use of C2 pointers : No

Read offset correction : 48Overread into Lead-In and Lead-Out : NoFill up missing offset samples with silence : YesDelete leading and trailing silent blocks : NoNull samples used in CRC calculations : YesUsed interface : Native Win32 interface for Win NT & 2000Gap handling : Appended to previous track

Used output format : User Defined EncoderSelected bitrate : 1024 kBit/sQuality : HighAdd ID3 tag : NoCommand line compressor : C:\Program Files (x86)\Monkey's Audio\wapet.exeAdditional command line options : %dest% -t "Genre=%genre%" -t "Artist=%albumartist%" -t "Title=%title%" -t "Album=%albumtitle%" -t "Year=%year%" -t "Track=%tracknr%" -t "Comment=%comment%" mac.exe %source% %dest% -c4000

TOC of the extracted CD

Track | Start | Length | Start sector | End sector --------------------------------------------------------- 1 | 0:00.33 | 2:57.05 | 33 | 13312 2 | 2:57.38 | 1:48.37 | 13313 | 21449 3 | 4:46.00 | 3:05.70 | 21450 | 35394 4 | 7:51.70 | 2:25.50 | 35395 | 46319 5 | 10:17.45 | 1:45.35 | 46320 | 54229 6 | 12:03.05 | 2:50.43 | 54230 | 67022 7 | 14:53.48 | 2:40.15 | 67023 | 79037 8 | 17:33.63 | 2:20.60 | 79038 | 89597 9 | 19:54.48 | 3:51.60 | 89598 | 106982 10 | 23:46.33 | 3:21.50 | 106983 | 122107 11 | 27:08.08 | 4:57.17 | 122108 | 144399 12 | 32:05.25 | 3:42.03 | 144400 | 161052 13 | 35:47.28 | 3:05.67 | 161053 | 174994 14 | 38:53.20 | 2:37.68 | 174995 | 186837 15 | 41:31.13 | 3:28.15 | 186838 | 202452 16 | 44:59.28 | 4:09.20 | 202453 | 221147 17 | 49:08.48 | 4:16.22 | 221148 | 240369 18 | 53:24.70 | 1:41.00 | 240370 | 247944 19 | 55:05.70 | 3:24.03 | 247945 | 263247 20 | 58:29.73 | 2:12.00 | 263248 | 273147 21 | 60:41.73 | 4:24.45 | 273148 | 292992 22 | 65:06.43 | 4:19.65 | 292993 | 312482 23 | 69:26.33 | 1:35.22 | 312483 | 319629

Track 1

Filename D:\Ennio Morricone\(1989) Le colonne sonore originali dei film di Sergio Leone\Ennio Morricone - Le colonne sonore originali dei film di Sergio Leone - 01. Per un pugno di dollari - Titoli.wav

Pre-gap length 0:00:02.33

Peak level 62.3 % Extraction speed 2.4 X Track quality 100.0 % Test CRC 4624EBC1 Copy CRC 4624EBC1 Accurately ripped (confidence 5) [11FEEBBA] (AR v2) Copy OK

Track 2

Filename D:\Ennio Morricone\(1989) Le colonne sonore originali dei film di Sergio Leone\Ennio Morricone - Le colonne sonore originali dei film di Sergio Leone - 02. Per un pugno di dollari.wav

Pre-gap length 0:00:01.10

Peak level 67.3 % Extraction speed 2.2 X Track quality 100.0 % Test CRC 2E6B2B3F Copy CRC 2E6B2B3F Accurately ripped (confidence 5) [DE6883F7] (AR v2) Copy OK

Track 3

Filename D:\Ennio Morricone\(1989) Le colonne sonore originali dei film di Sergio Leone\Ennio Morricone - Le colonne sonore originali dei film di Sergio Leone - 03. Per qualche dollaro in piu' - La resa dei conti.wav

Pre-gap length 0:00:01.52

Peak level 81.3 % Extraction speed 2.3 X Track quality 99.9 % Test CRC BEB96DF4 Copy CRC BEB96DF4 Accurately ripped (confidence 5) [EF9E008D] (AR v2) Copy OK

Track 4

Filename D:\Ennio Morricone\(1989) Le colonne sonore originali dei film di Sergio Leone\Ennio Morricone - Le colonne sonore originali dei film di Sergio Leone - 04. Per qualche dollaro in piu' - Il vizio di uccidere.wav

Pre-gap length 0:00:01.05

Peak level 72.7 % Extraction speed 2.7 X Track quality 100.0 % Test CRC E2C31783 Copy CRC E2C31783 Accurately ripped (confidence 5) [36D5E8EA] (AR v2) Copy OK

Track 5

Filename D:\Ennio Morricone\(1989) Le colonne sonore originali dei film di Sergio Leone\Ennio Morricone - Le colonne sonore originali dei film di Sergio Leone - 05. Per qualche dollaro in piu' - Addio colonnello.wav

Pre-gap length 0:00:01.45

Peak level 61.9 % Extraction speed 2.6 X Track quality 100.0 % Test CRC 13974542 Copy CRC 13974542 Accurately ripped (confidence 5) [B65CFE0B] (AR v2) Copy OK

Track 6

Filename D:\Ennio Morricone\(1989) Le colonne sonore originali dei film di Sergio Leone\Ennio Morricone - Le colonne sonore originali dei film di Sergio Leone - 06. Per qualche dollaro in piu'.wav

Pre-gap length 0:00:01.37

Peak level 69.5 % Extraction speed 3.0 X Track quality 100.0 % Test CRC B6B58C82 Copy CRC B6B58C82 Accurately ripped (confidence 5) [C614F600] (AR v2) Copy OK

Track 7

Filename D:\Ennio Morricone\(1989) Le colonne sonore originali dei film di Sergio Leone\Ennio Morricone - Le colonne sonore originali dei film di Sergio Leone - 07. Il buono, il brutto, il cattivo - Titoli di testa.wav

Pre-gap length 0:00:01.43

Peak level 88.1 % Extraction speed 3.1 X Track quality 100.0 % Test CRC 9AC6750E Copy CRC 9AC6750E Accurately ripped (confidence 5) [C45C4DB8] (AR v2) Copy OK

Track 8

Filename D:\Ennio Morricone\(1989) Le colonne sonore originali dei film di Sergio Leone\Ennio Morricone - Le colonne sonore originali dei film di Sergio Leone - 08. Il buono, il brutto, il cattivo - Il forte.wav

Pre-gap length 0:00:01.33

Peak level 52.9 % Extraction speed 3.2 X Track quality 100.0 % Test CRC FE22D2FA Copy CRC FE22D2FA Accurately ripped (confidence 5) [6FDC102B] (AR v2) Copy OK

Track 9

Filename D:\Ennio Morricone\(1989) Le colonne sonore originali dei film di Sergio Leone\Ennio Morricone - Le colonne sonore originali dei film di Sergio Leone - 09. Il buono, il brutto, il cattivo - Storia di un soldato.wav

Pre-gap length 0:00:00.58

Peak level 71.9 % Extraction speed 3.6 X Track quality 100.0 % Test CRC F81C8380 Copy CRC F81C8380 Accurately ripped (confidence 4) [8F958015] (AR v2) Copy OK

Track 10

Filename D:\Ennio Morricone\(1989) Le colonne sonore originali dei film di Sergio Leone\Ennio Morricone - Le colonne sonore originali dei film di Sergio Leone - 10. Il buono, il brutto, il cattivo - L'Estasi dell'oro.wav

Pre-gap length 0:00:01.53

Peak level 75.2 % Extraction speed 3.6 X Track quality 100.0 % Test CRC 5566E5D1 Copy CRC 5566E5D1 Accurately ripped (confidence 5) [8B5F78E7] (AR v2) Copy OK

Track 11

Filename D:\Ennio Morricone\(1989) Le colonne sonore originali dei film di Sergio Leone\Ennio Morricone - Le colonne sonore originali dei film di Sergio Leone - 11. Il buono, il brutto, il cattivo - Il triello (Titoli finali).wav

Pre-gap length 0:00:01.18

Peak level 73.2 % Extraction speed 4.0 X Track quality 100.0 % Test CRC A39FF29C Copy CRC A39FF29C Accurately ripped (confidence 5) [B1AC2E7E] (AR v2) Copy OK

Track 12

Filename D:\Ennio Morricone\(1989) Le colonne sonore originali dei film di Sergio Leone\Ennio Morricone - Le colonne sonore originali dei film di Sergio Leone - 12. C'era una volta il West - Titoli.wav

Pre-gap length 0:00:01.07

Peak level 95.7 % Extraction speed 4.0 X Track quality 100.0 % Test CRC 0C670400 Copy CRC 0C670400 Accurately ripped (confidence 5) [5217D343] (AR v2) Copy OK

Track 13

Filename D:\Ennio Morricone\(1989) Le colonne sonore originali dei film di Sergio Leone\Ennio Morricone - Le colonne sonore originali dei film di Sergio Leone - 13. C'era una volta il West - Come una sentenza.wav

Pre-gap length 0:00:01.28

Peak level 64.8 % Extraction speed 3.4 X Track quality 99.9 % Test CRC E07E1075 Copy CRC E07E1075 Accurately ripped (confidence 5) [E9F12D7F] (AR v2) Copy OK

Track 14

Filename D:\Ennio Morricone\(1989) Le colonne sonore originali dei film di Sergio Leone\Ennio Morricone - Le colonne sonore originali dei film di Sergio Leone - 14. C'era una volta il West - Addio a Cheyenne.wav

Pre-gap length 0:00:01.32

Peak level 79.9 % Extraction speed 4.1 X Track quality 100.0 % Test CRC 90400FC9 Copy CRC 90400FC9 Accurately ripped (confidence 5) [FBA3C539] (AR v2) Copy OK

Track 15

Filename D:\Ennio Morricone\(1989) Le colonne sonore originali dei film di Sergio Leone\Ennio Morricone - Le colonne sonore originali dei film di Sergio Leone - 15. C'era una volta il West - L'uomo dell'armonica.wav

Pre-gap length 0:00:01.63

Peak level 69.4 % Extraction speed 4.3 X Track quality 100.0 % Test CRC F91909A5 Copy CRC F91909A5 Accurately ripped (confidence 5) [0C3872BF] (AR v2) Copy OK

Track 16

Filename D:\Ennio Morricone\(1989) Le colonne sonore originali dei film di Sergio Leone\Ennio Morricone - Le colonne sonore originali dei film di Sergio Leone - 16. C'era una volta il West - Finale.wav

Pre-gap length 0:00:01.23

Peak level 76.5 % Extraction speed 4.5 X Track quality 100.0 % Test CRC D81B3E00 Copy CRC D81B3E00 Accurately ripped (confidence 5) [8B48FD1F] (AR v2) Copy OK

Track 17

Filename D:\Ennio Morricone\(1989) Le colonne sonore originali dei film di Sergio Leone\Ennio Morricone - Le colonne sonore originali dei film di Sergio Leone - 17. Giu' la testa - Titoli.wav

Pre-gap length 0:00:01.18

Peak level 67.1 % Extraction speed 4.1 X Track quality 99.9 % Test CRC 1DC91C8C Copy CRC 1DC91C8C Accurately ripped (confidence 5) [DCE6D2BC] (AR v2) Copy OK

Track 18

Filename D:\Ennio Morricone\(1989) Le colonne sonore originali dei film di Sergio Leone\Ennio Morricone - Le colonne sonore originali dei film di Sergio Leone - 18. Giu' la testa - Mesa Verde.wav

Pre-gap length 0:00:01.12

Peak level 49.7 % Extraction speed 4.0 X Track quality 100.0 % Test CRC 004FED53 Copy CRC 004FED53 Accurately ripped (confidence 5) [F266755C] (AR v2) Copy OK

Track 19

Filename D:\Ennio Morricone\(1989) Le colonne sonore originali dei film di Sergio Leone\Ennio Morricone - Le colonne sonore originali dei film di Sergio Leone - 19. Giu' la testa - Dopo l'esplosione.wav

Pre-gap length 0:00:01.15

Peak level 56.6 % Extraction speed 4.7 X Track quality 100.0 % Test CRC E2E592C6 Copy CRC E2E592C6 Accurately ripped (confidence 5) [3BB0113C] (AR v2) Copy OK

Track 20

Filename D:\Ennio Morricone\(1989) Le colonne sonore originali dei film di Sergio Leone\Ennio Morricone - Le colonne sonore originali dei film di Sergio Leone - 20. C'era una volta in America.wav

Pre-gap length 0:00:01.33

Peak level 76.9 % Extraction speed 4.4 X Track quality 100.0 % Test CRC 2804DB5B Copy CRC 2804DB5B Accurately ripped (confidence 5) [BA76A4D5] (AR v2) Copy OK

Track 21

Filename D:\Ennio Morricone\(1989) Le colonne sonore originali dei film di Sergio Leone\Ennio Morricone - Le colonne sonore originali dei film di Sergio Leone - 21. C'era una volta in America - Tema di Deborah.wav

Pre-gap length 0:00:01.10

Peak level 57.0 % Extraction speed 4.5 X Track quality 99.9 % Test CRC 7783603E Copy CRC 7783603E Accurately ripped (confidence 5) [46C8D78D] (AR v2) Copy OK

Track 22

Filename D:\Ennio Morricone\(1989) Le colonne sonore originali dei film di Sergio Leone\Ennio Morricone - Le colonne sonore originali dei film di Sergio Leone - 22. C'era una volta in America - Canzone di Cockeye.wav

Pre-gap length 0:00:01.15

Peak level 64.1 % Extraction speed 5.1 X Track quality 100.0 % Test CRC 0A4FCAFB Copy CRC 0A4FCAFB Accurately ripped (confidence 5) [2DEAA022] (AR v2) Copy OK

Track 23

Filename D:\Ennio Morricone\(1989) Le colonne sonore originali dei film di Sergio Leone\Ennio Morricone - Le colonne sonore originali dei film di Sergio Leone - 23. C'era una volta in America - Amici.wav

Pre-gap length 0:00:01.20

Peak level 76.8 % Extraction speed 3.3 X Track quality 99.8 % Test CRC 2F33FDB3 Copy CRC 2F33FDB3 Accurately ripped (confidence 5) [C0F4E96F] (AR v2) Copy OK

All tracks accurately ripped

No errors occurred

End of status report

==== Log checksum C4947FE506B726BEB482D95EBAB5F079FF7D6DC4623A051365E878A141CA5995 ====
REM GENRE SoundtrackREM DATE 1989REM DISCID 5210A517REM COMMENT "ExactAudioCopy v1.0b6"PERFORMER "Ennio Morricone"TITLE "Le colonne sonore originali dei film di Sergio Leone"FILE "Ennio Morricone - Le colonne sonore originali dei film di Sergio Leone - 01. Per un pugno di dollari - Titoli.wav" WAVE TRACK 01 AUDIO TITLE "Per un pugno di dollari - Titoli" PERFORMER "Ennio Morricone" PREGAP 00:00:33 INDEX 01 00:00:00 TRACK 02 AUDIO TITLE "Per un pugno di dollari" PERFORMER "Ennio Morricone" INDEX 00 02:55:70FILE "Ennio Morricone - Le colonne sonore originali dei film di Sergio Leone - 02. Per un pugno di dollari.wav" WAVE INDEX 01 00:00:00 TRACK 03 AUDIO TITLE "Per qualche dollaro in piu' - La resa dei conti" PERFORMER "Ennio Morricone" INDEX 00 01:46:60FILE "Ennio Morricone - Le colonne sonore originali dei film di Sergio Leone - 03. Per qualche dollaro in piu' - La resa dei conti.wav" WAVE INDEX 01 00:00:00 TRACK 04 AUDIO TITLE "Per qualche dollaro in piu' - Il vizio di uccidere" PERFORMER "Ennio Morricone" INDEX 00 03:04:65FILE "Ennio Morricone - Le colonne sonore originali dei film di Sergio Leone - 04. Per qualche dollaro in piu' - Il vizio di uccidere.wav" WAVE INDEX 01 00:00:00 TRACK 05 AUDIO TITLE "Per qualche dollaro in piu' - Addio colonnello" PERFORMER "Ennio Morricone" INDEX 00 02:24:05FILE "Ennio Morricone - Le colonne sonore originali dei film di Sergio Leone - 05. Per qualche dollaro in piu' - Addio colonnello.wav" WAVE INDEX 01 00:00:00 TRACK 06 AUDIO TITLE "Per qualche dollaro in piu'" PERFORMER "Ennio Morricone" INDEX 00 01:43:73FILE "Ennio Morricone - Le colonne sonore originali dei film di Sergio Leone - 06. Per qualche dollaro in piu'.wav" WAVE INDEX 01 00:00:00 TRACK 07 AUDIO TITLE "Il buono, il brutto, il cattivo - Titoli di testa" PERFORMER "Ennio Morricone" INDEX 00 02:49:00FILE "Ennio Morricone - Le colonne sonore originali dei film di Sergio Leone - 07. Il buono, il brutto, il cattivo - Titoli di testa.wav" WAVE INDEX 01 00:00:00 TRACK 08 AUDIO TITLE "Il buono, il brutto, il cattivo - Il forte" PERFORMER "Ennio Morricone" INDEX 00 02:38:57FILE "Ennio Morricone - Le colonne sonore originali dei film di Sergio Leone - 08. Il buono, il brutto, il cattivo - Il forte.wav" WAVE INDEX 01 00:00:00 TRACK 09 AUDIO TITLE "Il buono, il brutto, il cattivo - Storia di un soldato" PERFORMER "Ennio Morricone" INDEX 00 02:20:02FILE "Ennio Morricone - Le colonne sonore originali dei film di Sergio Leone - 09. Il buono, il brutto, il cattivo - Storia di un soldato.wav" WAVE INDEX 01 00:00:00 TRACK 10 AUDIO TITLE "Il buono, il brutto, il cattivo - L'Estasi dell'oro" PERFORMER "Ennio Morricone" INDEX 00 03:50:07FILE "Ennio Morricone - Le colonne sonore originali dei film di Sergio Leone - 10. Il buono, il brutto, il cattivo - L'Estasi dell'oro.wav" WAVE INDEX 01 00:00:00 TRACK 11 AUDIO TITLE "Il buono, il brutto, il cattivo - Il triello (Titoli finali)" PERFORMER "Ennio Morricone" INDEX 00 03:20:32FILE "Ennio Morricone - Le colonne sonore originali dei film di Sergio Leone - 11. Il buono, il brutto, il cattivo - Il triello (Titoli finali).wav" WAVE INDEX 01 00:00:00 TRACK 12 AUDIO TITLE "C'era una volta il West - Titoli" PERFORMER "Ennio Morricone" INDEX 00 04:56:10FILE "Ennio Morricone - Le colonne sonore originali dei film di Sergio Leone - 12. C'era una volta il West - Titoli.wav" WAVE INDEX 01 00:00:00 TRACK 13 AUDIO TITLE "C'era una volta il West - Come una sentenza" PERFORMER "Ennio Morricone" INDEX 00 03:40:50FILE "Ennio Morricone - Le colonne sonore originali dei film di Sergio Leone - 13. C'era una volta il West - Come una sentenza.wav" WAVE INDEX 01 00:00:00 TRACK 14 AUDIO TITLE "C'era una volta il West - Addio a Cheyenne" PERFORMER "Ennio Morricone" INDEX 00 03:04:35FILE "Ennio Morricone - Le colonne sonore originali dei film di Sergio Leone - 14. C'era una volta il West - Addio a Cheyenne.wav" WAVE INDEX 01 00:00:00 TRACK 15 AUDIO TITLE "C'era una volta il West - L'uomo dell'armonica" PERFORMER "Ennio Morricone" INDEX 00 02:36:05FILE "Ennio Morricone - Le colonne sonore originali dei film di Sergio Leone - 15. C'era una volta il West - L'uomo dell'armonica.wav" WAVE INDEX 01 00:00:00 TRACK 16 AUDIO TITLE "C'era una volta il West - Finale" PERFORMER "Ennio Morricone" INDEX 00 03:26:67FILE "Ennio Morricone - Le colonne sonore originali dei film di Sergio Leone - 16. C'era una volta il West - Finale.wav" WAVE INDEX 01 00:00:00 TRACK 17 AUDIO TITLE "Giu' la testa - Titoli" PERFORMER "Ennio Morricone" INDEX 00 04:08:02FILE "Ennio Morricone - Le colonne sonore originali dei film di Sergio Leone - 17. Giu' la testa - Titoli.wav" WAVE INDEX 01 00:00:00 TRACK 18 AUDIO TITLE "Giu' la testa - Mesa Verde" PERFORMER "Ennio Morricone" INDEX 00 04:15:10FILE "Ennio Morricone - Le colonne sonore originali dei film di Sergio Leone - 18. Giu' la testa - Mesa Verde.wav" WAVE INDEX 01 00:00:00 TRACK 19 AUDIO TITLE "Giu' la testa - Dopo l'esplosione" PERFORMER "Ennio Morricone" INDEX 00 01:39:60FILE "Ennio Morricone - Le colonne sonore originali dei film di Sergio Leone - 19. Giu' la testa - Dopo l'esplosione.wav" WAVE INDEX 01 00:00:00 TRACK 20 AUDIO TITLE "C'era una volta in America" PERFORMER "Ennio Morricone" INDEX 00 03:22:45FILE "Ennio Morricone - Le colonne sonore originali dei film di Sergio Leone - 20. C'era una volta in America.wav" WAVE INDEX 01 00:00:00 TRACK 21 AUDIO TITLE "C'era una volta in America - Tema di Deborah" PERFORMER "Ennio Morricone" INDEX 00 02:10:65FILE "Ennio Morricone - Le colonne sonore originali dei film di Sergio Leone - 21. C'era una volta in America - Tema di Deborah.wav" WAVE INDEX 01 00:00:00 TRACK 22 AUDIO TITLE "C'era una volta in America - Canzone di Cockeye" PERFORMER "Ennio Morricone" INDEX 00 04:23:30FILE "Ennio Morricone - Le colonne sonore originali dei film di Sergio Leone - 22. C'era una volta in America - Canzone di Cockeye.wav" WAVE INDEX 01 00:00:00 TRACK 23 AUDIO TITLE "C'era una volta in America - Amici" PERFORMER "Ennio Morricone" INDEX 00 04:18:45FILE "Ennio Morricone - Le colonne sonore originali dei film di Sergio Leone - 23. C'era una volta in America - Amici.wav" WAVE INDEX 01 00:00:00


Трекер:  [ 27-Мар-2016 18:00 ]

  

Скачать .torrent

Размер .torrent файла 17 KB


Размер: 328 MB
Хэш (hash) релиза: b4d7c8dc0167958d7b322485e6b5cfba79bffa09

Еще никто не оставлял запись к записи скачать торрент Оригинальные саундтреки к фильмам Серджио ЛеонеLe Colonne Sonore Originali Dei Film Di Sergio Leone . Будь первым!

!Обратная связь