Скачать через торрент музыку Кеннер Жила-была... || Kenner бесплатно без регистрации torrent

Если у вас наблюдаются проблемы со скриншотами, переходом по ссылками, скачиванием торрентов - проблемы в блокировщике рекламы AdBlock. #хорошегоДня!


Статистика раздачи
Размер:  1.18 GB   |    Зарегистрирован:  1 год 8 месяцев   |    .torrent скачан:  19 раз   |   
Раздают:  1  
   
Загрузка...
 
Автор Сообщение

Galfimbul

avatar Galfimbul


Кеннер / Жила-была... || Kenner / More Than A Miracle (C'era una volta)

Жанр: Score
Композитор: Piero Piccioni
Год выпуска диска: 2011
Год выпуска фильма: 1968 / 1967
Производитель диска: USA
Издатель (лейбл): Film Score Monthly
Номер по каталогу: FSM Vol.14 No.7

Аудиокодек: FLAC (*.flac)
Тип рипа: image+.cue
Битрейт аудио: lossless
Продолжительность: 63.47; 80.00; 79.56
Источник: собственный рип
Наличие сканов в содержимом раздачи: да (600 dpi)

Треклист
01. Theme From Kenner (Main Title) [01:45.27]
02. Bombay / A Boy And His Cricket [01:12.41]
03. Saji Meets Kenner [01:20.13]
04. Chase [00:56.51]
05. Kenner Shake [01:40.30]
06. At The Seamen's Club [02:07.67]
07. At The Seamen's Club - Part Two [00:54.60]
08. Saji Remembers His Father [01:45.43]
09. Drugged / Ambush / Kenner Pursues Saji [03:37.58]
10. Saji Refuses The New Shoes / Truth About Saji's Father Revealed / Saji Escapes [03:21.36]
11. Night Ambush And Escape [02:05.00]
12. Saji And Anasuya Visit Injured Kenner / Conversation / Kenner's Nightmare [02:43.04]
13. Kenner Wakes Up And Remembers / Conversation / Nocturne [03:28.08]
14. Unused Jazz / Anasuya Comes Back Home / A New Day For Kenner [01:19.33]
15. Happiness [01:10.48]
16. A Beautiful Day [03:01.32]
17. Happiniess (Reprise) [00:32.37]
18. Love Scene [05:17.20]
19. Chase And Death Of Anasuya [02:04.37]
20. Anasuya's Ashes [00:40.69]
21. Remembering Anasuya [01:15.52]
22. Shanghai Cafe [02:02.10]
23. Hot Pursuit [04:42.47]
24. Kenner And Saji Reunited (Finale) / End Title [03:02.64]
25. Love Theme (Introduction) [00:25.66]
26. Indian Music (Sitar) [00:28.08]
27. Love Theme (#1) [01:45.44]
28. Kenner Shake (Long Version) [02:50.31]
29. Chase And Death Of Anasuya (Alternate Version) [02:02.47]
30. At The Seamen's Club (Alternate Version) [02:08.54]
31. At The Seamen's Club (Alternate Mix) [00:54.52]
32. Love Theme (#2) [01:02.06]
Exact Audio Copy V1.0 beta 3 from 29. August 2011

EAC extraction logfile from 28. April 2013, 16:26

Piero Piccioni / Kenner

Used drive : TSSTcorpCDDVDW SH-S202H Adapter: 0 ID: 0

Read mode : SecureUtilize accurate stream : YesDefeat audio cache : YesMake use of C2 pointers : No

Read offset correction : 6Overread into Lead-In and Lead-Out : NoFill up missing offset samples with silence : YesDelete leading and trailing silent blocks : NoNull samples used in CRC calculations : YesUsed interface : Native Win32 interface for Win NT & 2000

Used output format : Internal WAV RoutinesSample format : 44.100 Hz; 16 Bit; Stereo

TOC of the extracted CD

Track | Start | Length | Start sector | End sector --------------------------------------------------------- 1 | 0:00.00 | 1:45.27 | 0 | 7901 2 | 1:45.27 | 1:12.41 | 7902 | 13342 3 | 2:57.68 | 1:20.13 | 13343 | 19355 4 | 4:18.06 | 0:56.51 | 19356 | 23606 5 | 5:14.57 | 1:40.30 | 23607 | 31136 6 | 6:55.12 | 2:07.67 | 31137 | 40728 7 | 9:03.04 | 0:54.60 | 40729 | 44838 8 | 9:57.64 | 1:45.43 | 44839 | 52756 9 | 11:43.32 | 3:37.58 | 52757 | 69089 10 | 15:21.15 | 3:21.36 | 69090 | 84200 11 | 18:42.51 | 2:05.00 | 84201 | 93575 12 | 20:47.51 | 2:43.04 | 93576 | 105804 13 | 23:30.55 | 3:28.08 | 105805 | 121412 14 | 26:58.63 | 1:19.33 | 121413 | 127370 15 | 28:18.21 | 1:10.48 | 127371 | 132668 16 | 29:28.69 | 3:01.32 | 132669 | 146275 17 | 32:30.26 | 0:32.37 | 146276 | 148712 18 | 33:02.63 | 5:17.20 | 148713 | 172507 19 | 38:20.08 | 2:04.37 | 172508 | 181844 20 | 40:24.45 | 0:40.69 | 181845 | 184913 21 | 41:05.39 | 1:15.52 | 184914 | 190590 22 | 42:21.16 | 2:02.10 | 190591 | 199750 23 | 44:23.26 | 4:42.47 | 199751 | 220947 24 | 49:05.73 | 3:02.64 | 220948 | 234661 25 | 52:08.62 | 0:25.66 | 234662 | 236602 26 | 52:34.53 | 0:28.08 | 236603 | 238710 27 | 53:02.61 | 1:45.44 | 238711 | 246629 28 | 54:48.30 | 2:50.31 | 246630 | 259410 29 | 57:38.61 | 2:02.47 | 259411 | 268607 30 | 59:41.33 | 2:08.54 | 268608 | 278261 31 | 61:50.12 | 0:54.52 | 278262 | 282363 32 | 62:44.64 | 1:02.06 | 282364 | 287019

Range status and errors

Selected range

Filename D:\Piero Piccioni - Kenner\Piero Piccioni - Kenner.wav

Peak level 100.0 % Extraction speed 7.8 X Range quality 99.9 % Test CRC 59E8AB72 Copy CRC 59E8AB72 Copy OK

No errors occurred

AccurateRip summary

Track 1 accurately ripped (confidence 2) [BDE85AC6] (AR v1)Track 2 accurately ripped (confidence 2) [968D6C75] (AR v1)Track 3 accurately ripped (confidence 2) [ACBA16E6] (AR v1)Track 4 accurately ripped (confidence 2) [469225BE] (AR v1)Track 5 accurately ripped (confidence 2) [A29C0F77] (AR v1)Track 6 accurately ripped (confidence 2) [2F364180] (AR v1)Track 7 accurately ripped (confidence 2) [E7CCD955] (AR v1)Track 8 accurately ripped (confidence 2) [3C878204] (AR v1)Track 9 accurately ripped (confidence 2) [3788ECA4] (AR v1)Track 10 accurately ripped (confidence 2) [9558704C] (AR v1)Track 11 accurately ripped (confidence 2) [7B4E2C49] (AR v1)Track 12 accurately ripped (confidence 2) [85BC34F1] (AR v1)Track 13 accurately ripped (confidence 2) [0A6B1662] (AR v1)Track 14 accurately ripped (confidence 2) [11324DDD] (AR v1)Track 15 accurately ripped (confidence 2) [4D307E97] (AR v1)Track 16 accurately ripped (confidence 2) [82FBA131] (AR v1)Track 17 accurately ripped (confidence 2) [E5AD2156] (AR v1)Track 18 accurately ripped (confidence 2) [A1B2E9C0] (AR v1)Track 19 accurately ripped (confidence 2) [FFCB7452] (AR v2)Track 20 accurately ripped (confidence 2) [B83CBADC] (AR v2)Track 21 accurately ripped (confidence 2) [0860346D] (AR v2)Track 22 accurately ripped (confidence 2) [CEC12EFB] (AR v2)Track 23 accurately ripped (confidence 2) [CEA153F4] (AR v2)Track 24 accurately ripped (confidence 2) [DBA30D43] (AR v2)Track 25 accurately ripped (confidence 2) [E4BA23B7] (AR v2)Track 26 accurately ripped (confidence 2) [94D11A91] (AR v2)Track 27 accurately ripped (confidence 2) [C7FD3002] (AR v2)Track 28 accurately ripped (confidence 2) [BF1749E4] (AR v2)Track 29 accurately ripped (confidence 2) [7648C6C3] (AR v2)Track 30 accurately ripped (confidence 2) [AB4A94DA] (AR v2)Track 31 accurately ripped (confidence 2) [D01CD8D5] (AR v2)Track 32 accurately ripped (confidence 2) [EDC586E1] (AR v2)

All tracks accurately ripped

End of status report

==== Log checksum D8353BE690260A6A2DCF4500F0CCDA732F8E40451C3736DD5B0D570805887F4B ====
Original 1967 Soundtrack Album

01. "More Than A Miracle" [02:05.18]
performed by Roger Williams, His Chorus And Orchestra
02. Prince Rodrigo [02:05.37]
03. Brother Joseph [01:54.53]
04. Isabelle And Rodrigo [02:27.68]
05. Rodrigo Leaves The Monastery [01:53.56]
06. The Chef [01:57.42]
07. Isabella In The Barrel [05:03.74]
08. Isabella And Rodrigo In The Pantry [02:10.09]
09. The Tournament [02:10.34]
10. The Eggs Are Bewitched [01:54.28]
11. The Contest [01:14.27]
12. Brother Joseph Comforts Isabella [01:49.24]
13. End Title "More Than A Miracle" [05:23.38]

Film Score (Part 1)
14. Main Title (Prince Rodrigo Theme) [02:04.09]
15. Rodrigo Lost In The Cornfields / Rodrigo Sees Brother Joseph, The Flying Monk [03:57.56]
16. Rodrigo Leaves The Monastery [02:45.27]
17. Rodrigo And Isabella's First Meeting [04:28.57]
18. Rodrigo Rides A Horse / A New Love's Birth [02:28.63]
19. Rodrigo Courts Isabella [01:45.51]
20. Isabella's Sadness / In The Witches' Realm [02:36.05]
21. Spanish Soldiers' Arrival / Prince Rodrigo's Cavalcade Arrives / First Kiss / Isabella's Revelation And Punishment [06:47.44]
22. Prince Rodrigo Returns To The Castle / Isabella Locked Up In A Barrel / The Barrel Ends Up In The Sea / Isabella Wakes Up [03:53.36]
23. The Tournament / Prince Rodrigo's Victory [04:02.64]
24. The Chef / The Eggs Are Bewitched / The Castle [02:22.31]
25. The Seven Princesses / The Chef (Part 2) [01:22.39]
26. Birth Of The Chicks / The Chef (Part 3) / Invasion Of The Chicks [03:36.52]
27. Isabella Sees Prince Rodrigo's Portrait / Prince Rodrigo Searches For Brother Joseph / Brother Joseph's Funeral [03:39.00]
28. Prince Rodrigo Returns To The Palace [01:57.69]
Exact Audio Copy V1.0 beta 3 from 29. August 2011

EAC extraction logfile from 28. April 2013, 16:47

Piero Piccioni / More Than A Miracle (Disc 1)

Used drive : TSSTcorpCDDVDW SH-S202H Adapter: 0 ID: 0

Read mode : SecureUtilize accurate stream : YesDefeat audio cache : YesMake use of C2 pointers : No

Read offset correction : 6Overread into Lead-In and Lead-Out : NoFill up missing offset samples with silence : YesDelete leading and trailing silent blocks : NoNull samples used in CRC calculations : YesUsed interface : Native Win32 interface for Win NT & 2000

Used output format : Internal WAV RoutinesSample format : 44.100 Hz; 16 Bit; Stereo

TOC of the extracted CD

Track | Start | Length | Start sector | End sector --------------------------------------------------------- 1 | 0:00.00 | 2:05.18 | 0 | 9392 2 | 2:05.18 | 2:05.37 | 9393 | 18804 3 | 4:10.55 | 1:54.53 | 18805 | 27407 4 | 6:05.33 | 2:27.68 | 27408 | 38500 5 | 8:33.26 | 1:53.56 | 38501 | 47031 6 | 10:27.07 | 1:57.42 | 47032 | 55848 7 | 12:24.49 | 5:03.74 | 55849 | 78647 8 | 17:28.48 | 2:10.09 | 78648 | 88406 9 | 19:38.57 | 2:10.34 | 88407 | 98190 10 | 21:49.16 | 1:54.28 | 98191 | 106768 11 | 23:43.44 | 1:14.27 | 106769 | 112345 12 | 24:57.71 | 1:49.24 | 112346 | 120544 13 | 26:47.20 | 5:23.38 | 120545 | 144807 14 | 32:10.58 | 2:04.09 | 144808 | 154116 15 | 34:14.67 | 3:57.56 | 154117 | 171947 16 | 38:12.48 | 2:45.27 | 171948 | 184349 17 | 40:58.00 | 4:28.57 | 184350 | 204506 18 | 45:26.57 | 2:28.63 | 204507 | 215669 19 | 47:55.45 | 1:45.51 | 215670 | 223595 20 | 49:41.21 | 2:36.05 | 223596 | 235300 21 | 52:17.26 | 6:47.44 | 235301 | 265869 22 | 59:04.70 | 3:53.36 | 265870 | 283380 23 | 62:58.31 | 4:02.64 | 283381 | 301594 24 | 67:01.20 | 2:22.31 | 301595 | 312275 25 | 69:23.51 | 1:22.39 | 312276 | 318464 26 | 70:46.15 | 3:36.52 | 318465 | 334716 27 | 74:22.67 | 3:39.00 | 334717 | 351141 28 | 78:01.67 | 1:57.69 | 351142 | 359985

Range status and errors

Selected range

Filename D:\Piero Piccioni - More Than A Miracle\Piero Piccioni - More Than A Miracle (Disc 1).wav

Peak level 99.8 % Extraction speed 8.7 X Range quality 100.0 % Test CRC 0F9CA985 Copy CRC 0F9CA985 Copy OK

No errors occurred

AccurateRip summary

Track 1 accurately ripped (confidence 2) [F54B6BEA] (AR v2)Track 2 accurately ripped (confidence 2) [A7C640D4] (AR v2)Track 3 accurately ripped (confidence 2) [8B1A3E9C] (AR v2)Track 4 accurately ripped (confidence 2) [1694E35E] (AR v2)Track 5 accurately ripped (confidence 2) [2ACC7B3C] (AR v2)Track 6 accurately ripped (confidence 2) [B5C10AAD] (AR v2)Track 7 accurately ripped (confidence 2) [81E6F321] (AR v2)Track 8 accurately ripped (confidence 2) [87199EB7] (AR v2)Track 9 accurately ripped (confidence 2) [53B3A49E] (AR v2)Track 10 accurately ripped (confidence 2) [47D96785] (AR v2)Track 11 accurately ripped (confidence 2) [A07AD16A] (AR v2)Track 12 accurately ripped (confidence 2) [47ABFA81] (AR v2)Track 13 accurately ripped (confidence 2) [68929373] (AR v2)Track 14 accurately ripped (confidence 2) [DF5FA700] (AR v2)Track 15 accurately ripped (confidence 2) [8E6C9D06] (AR v2)Track 16 accurately ripped (confidence 2) [3E137CDA] (AR v2)Track 17 accurately ripped (confidence 2) [86EC0F7C] (AR v2)Track 18 accurately ripped (confidence 2) [8FEE149D] (AR v2)Track 19 accurately ripped (confidence 2) [1528143B] (AR v2)Track 20 accurately ripped (confidence 2) [BDD20AAA] (AR v2)Track 21 accurately ripped (confidence 2) [57809793] (AR v2)Track 22 accurately ripped (confidence 2) [B0B884AC] (AR v2)Track 23 accurately ripped (confidence 2) [FC33B374] (AR v2)Track 24 accurately ripped (confidence 2) [B85A43B7] (AR v2)Track 25 accurately ripped (confidence 2) [02F471EB] (AR v2)Track 26 accurately ripped (confidence 2) [22EDA40A] (AR v2)Track 27 accurately ripped (confidence 2) [22CDB91E] (AR v2)Track 28 accurately ripped (confidence 2) [1200D179] (AR v2)

All tracks accurately ripped

End of status report

==== Log checksum 08F22E60AFF4DA94136ABEC3B5C178711A55C4E49AFDB1F7BF09F2D3E1DF7D6B ====
Film Score (Part 2)
01. Prince Rodrigo Finds Isabella / The Kiss [04:18.25]
02. The Seven Princesses / The Dishwashing Contest / Isabella Loses The Contest / Despaired Isabella Escapes [05:44.15]
03. Brother Joseph Appears To Isabella On The Beach / Brother Joseph Comforts Isabella [02:36.07]
04. Folk Dance (In The Castle Gardens) [01:24.18]
05. Isabella Discovers The Trick / The Truth Revealed / Isabella, The New Princess / Love Triumph And Finale [06:19.26]

Alternate Takes And Outtakes
06. Prince Rodrigo Theme [03:01.10]
07. Brother Joseph, The Flying Monk (Alternate) [01:54.39]
08. Isabella And Rodrigo (Love Theme) [02:21.19]
09. Isabella And Rodrigo (Love Theme) [01:10.35]
10. Rodrigo Rides A Horse (Alternates) [02:27.62]
11. Prince Rodrigo Courts Isabella (Alternate) [01:17.72]
12. The Seven Princesses [01:06.36]
13. Brother Joseph, The Flying Monk [00:53.21]
14. Invasion Of The Chicks [01:07.45]
15. Prince Rodrigo Theme [01:06.06]
16. Prince Rodrigo Theme (Wild) [01:08.01]
17. Prince Rodrigo Theme [01:11.68]
18. Prince Rodrigo Theme [01:06.19]
19. Isabella And Rodrigo (Love Theme) [02:05.12]
20. Brother Joseph, The Flying Monk [02:38.74]
21. Isabella And Rodrigo (Love Theme) [00:53.69]
22. Prince Rodrigo Theme [01:12.11]
23. Prince Rodrigo Theme [00:55.69]
24. Invasion Of The Chicks (Alternate) [01:07.58]
25. Birth Of The Chicks [01:38.64]
26. The Witches [01:06.38]
27. Prince Rodrigo Theme [01:51.62]
28. Prince Rodrigo Theme [02:25.42]
29. Prince Rodrigo Theme [02:13.67]
30. Prince Rodrigo Theme [02:17.00]
31. Prince Rodrigo Theme [01:23.28]
32. Prince Rodrigo Theme [00:52.13]
33. Prince Rodrigo Theme [01:15.12]
34. Prince Rodrigo Theme [01:16.23]
35. Prince Rodrigo Theme [00:53.24]
36. Prince Rodrigo Theme / Love Theme [01:52.05]
37. Prince Rodrigo Theme / Love Theme [01:54.47]
38. Isabella And Rodrigo (Love Theme) [02:05.47]
39. Prince Rodrigo Theme [01:53.73]
40. Prince Rodrigo Theme [01:55.01]
41. Prince Rodrigo Theme (Main Title) [02:09.20]
42. 1967 Recording Session [01:42.15]
Exact Audio Copy V1.0 beta 3 from 29. August 2011

EAC extraction logfile from 28. April 2013, 17:08

Piero Piccioni / More Than A Miracle (Disc 2)

Used drive : TSSTcorpCDDVDW SH-S202H Adapter: 0 ID: 0

Read mode : SecureUtilize accurate stream : YesDefeat audio cache : YesMake use of C2 pointers : No

Read offset correction : 6Overread into Lead-In and Lead-Out : NoFill up missing offset samples with silence : YesDelete leading and trailing silent blocks : NoNull samples used in CRC calculations : YesUsed interface : Native Win32 interface for Win NT & 2000

Used output format : Internal WAV RoutinesSample format : 44.100 Hz; 16 Bit; Stereo

TOC of the extracted CD

Track | Start | Length | Start sector | End sector --------------------------------------------------------- 1 | 0:00.00 | 4:18.25 | 0 | 19374 2 | 4:18.25 | 5:44.15 | 19375 | 45189 3 | 10:02.40 | 2:36.07 | 45190 | 56896 4 | 12:38.47 | 1:24.18 | 56897 | 63214 5 | 14:02.65 | 6:19.26 | 63215 | 91665 6 | 20:22.16 | 3:01.10 | 91666 | 105250 7 | 23:23.26 | 1:54.39 | 105251 | 113839 8 | 25:17.65 | 2:21.19 | 113840 | 124433 9 | 27:39.09 | 1:10.35 | 124434 | 129718 10 | 28:49.44 | 2:27.62 | 129719 | 140805 11 | 31:17.31 | 1:17.72 | 140806 | 146652 12 | 32:35.28 | 1:06.36 | 146653 | 151638 13 | 33:41.64 | 0:53.21 | 151639 | 155634 14 | 34:35.10 | 1:07.45 | 155635 | 160704 15 | 35:42.55 | 1:06.06 | 160705 | 165660 16 | 36:48.61 | 1:08.01 | 165661 | 170761 17 | 37:56.62 | 1:11.68 | 170762 | 176154 18 | 39:08.55 | 1:06.19 | 176155 | 181123 19 | 40:14.74 | 2:05.12 | 181124 | 190510 20 | 42:20.11 | 2:38.74 | 190511 | 202434 21 | 44:59.10 | 0:53.69 | 202435 | 206478 22 | 45:53.04 | 1:12.11 | 206479 | 211889 23 | 47:05.15 | 0:55.69 | 211890 | 216083 24 | 48:01.09 | 1:07.58 | 216084 | 221166 25 | 49:08.67 | 1:38.64 | 221167 | 228580 26 | 50:47.56 | 1:06.38 | 228581 | 233568 27 | 51:54.19 | 1:51.62 | 233569 | 241955 28 | 53:46.06 | 2:25.42 | 241956 | 252872 29 | 56:11.48 | 2:13.67 | 252873 | 262914 30 | 58:25.40 | 2:17.00 | 262915 | 273189 31 | 60:42.40 | 1:23.28 | 273190 | 279442 32 | 62:05.68 | 0:52.13 | 279443 | 283355 33 | 62:58.06 | 1:15.12 | 283356 | 288992 34 | 64:13.18 | 1:16.23 | 288993 | 294715 35 | 65:29.41 | 0:53.24 | 294716 | 298714 36 | 66:22.65 | 1:52.05 | 298715 | 307119 37 | 68:14.70 | 1:54.47 | 307120 | 315716 38 | 70:09.42 | 2:05.47 | 315717 | 325138 39 | 72:15.14 | 1:53.73 | 325139 | 333686 40 | 74:09.12 | 1:55.01 | 333687 | 342312 41 | 76:04.13 | 2:09.20 | 342313 | 352007 42 | 78:13.33 | 1:42.15 | 352008 | 359672

Range status and errors

Selected range

Filename D:\Piero Piccioni - More Than A Miracle\Piero Piccioni - More Than A Miracle (Disc 2).wav

Peak level 100.0 % Extraction speed 8.6 X Range quality 100.0 % Test CRC 109532F1 Copy CRC 109532F1 Copy OK

No errors occurred

AccurateRip summary

Track 1 accurately ripped (confidence 2) [E9995430] (AR v2)Track 2 accurately ripped (confidence 2) [0E13B528] (AR v2)Track 3 accurately ripped (confidence 2) [89F84D04] (AR v2)Track 4 accurately ripped (confidence 2) [B322F055] (AR v2)Track 5 accurately ripped (confidence 2) [54FA94E7] (AR v2)Track 6 accurately ripped (confidence 2) [28E4396E] (AR v2)Track 7 accurately ripped (confidence 2) [A901C83C] (AR v2)Track 8 accurately ripped (confidence 2) [041051F4] (AR v2)Track 9 accurately ripped (confidence 2) [A72DFDF2] (AR v2)Track 10 accurately ripped (confidence 2) [5C3E1975] (AR v2)Track 11 accurately ripped (confidence 2) [90AAD471] (AR v2)Track 12 accurately ripped (confidence 2) [4D49FC05] (AR v2)Track 13 accurately ripped (confidence 2) [8450C1DB] (AR v2)Track 14 accurately ripped (confidence 2) [3C3462E4] (AR v2)Track 15 accurately ripped (confidence 2) [B73A6FF0] (AR v2)Track 16 accurately ripped (confidence 2) [C12D9183] (AR v2)Track 17 accurately ripped (confidence 2) [30A145B1] (AR v2)Track 18 accurately ripped (confidence 2) [8E95240B] (AR v2)Track 19 accurately ripped (confidence 2) [5FE85501] (AR v2)Track 20 accurately ripped (confidence 2) [6D71DDCE] (AR v2)Track 21 accurately ripped (confidence 2) [94EF85ED] (AR v2)Track 22 accurately ripped (confidence 2) [49050C26] (AR v2)Track 23 accurately ripped (confidence 2) [92B4C857] (AR v2)Track 24 accurately ripped (confidence 2) [5E620629] (AR v2)Track 25 accurately ripped (confidence 2) [E6B3CB4A] (AR v2)Track 26 accurately ripped (confidence 2) [D0737BE2] (AR v2)Track 27 accurately ripped (confidence 2) [6D06ADC2] (AR v2)Track 28 accurately ripped (confidence 2) [F07D8787] (AR v2)Track 29 accurately ripped (confidence 2) [8FE42E7E] (AR v2)Track 30 accurately ripped (confidence 2) [929B0D6B] (AR v2)Track 31 accurately ripped (confidence 2) [95C4503D] (AR v2)Track 32 accurately ripped (confidence 2) [E14DAD2C] (AR v2)Track 33 accurately ripped (confidence 2) [10E7A4C4] (AR v2)Track 34 accurately ripped (confidence 2) [4F5E9ABA] (AR v2)Track 35 accurately ripped (confidence 2) [42F614D8] (AR v2)Track 36 accurately ripped (confidence 2) [763D7AEE] (AR v2)Track 37 accurately ripped (confidence 2) [12B4A8DA] (AR v2)Track 38 accurately ripped (confidence 2) [C6742507] (AR v2)Track 39 accurately ripped (confidence 2) [0CBF6B89] (AR v2)Track 40 accurately ripped (confidence 2) [25D9609F] (AR v2)Track 41 accurately ripped (confidence 2) [4BA61953] (AR v2)Track 42 accurately ripped (confidence 2) [12CFF3E4] (AR v2)

All tracks accurately ripped

End of status report

==== Log checksum B12B10AC3E8A6992D0DC59C0B94B4F2CE5BDD88252BFF2A1ACED31D4A9116667 ====
Вниманию почтенной публики предлагается музыка к двум "американским фильмам" Маэстро Пьеро Пиччнони!
Хотя, насколько они американские? В первом (Кеннер) действие происходит большей частью в Индии, и там играют индийские актеры. Второй (Жила-была...) - вообще итало-французского производства (опять же - при участии американцев), а в одной из главных ролей сыграл египтянин Омар Шариф. Музыку написал итальянец... Впрочем, у хорошего фильма (и музыки к нему!) и не должно быть национальности.
В первом случае нас ждет детектив с ярким восточным колоритом - заглавный герой ищет убийцу, а попутно находит любовь и друга.
Во втором случае - старая сказка на новый лад. Простолюдинка и прекрасный принц. Только вот помимо очевидного для жанра преодолевания трудностей и опасностей, вставших на пути двух влюбленных, героям предстоит побороться и собственным характером - ведь оба они ОЧЕНЬ упрямы и горячи.
О музыке стоит сказать особо.
Оба фильма дали Маэстро Пиччони развернуться по полной программе. В обоих есть любовь (так что запоминающиеся романтичные темы гарантируем). Но в первом фильме Маэстро добавил восточные мотивы, а также ряд саспенс и экшен тем, а во втором - ряд веселых и жизнеутверждающих тем, а так же немного мистических тем (что же это за сказка, если в ней совсем нет волшебства?!).
На первом диске представлена вся музыка из Кеннера. Это ее премьерный релиз.
Первые 13 треков второго диска - альбомная версия саундтрека Жила-была..., включая вокальную версию заглавной темы, в исполнении оркестра и хора Роджера Уильямса. Далее - вся музыка, звучащая в фильме.
Первые 5 треков с третьего диска "закрывают" версию музыки, звучащей в фильме. А затем - почти 60 минут различных бонусных треков - ранние версии тем, вариации тем для различных инструментов.
Более подробную информацию обо всех треках можно найти в pdf-файле.



Трекер:  [ 27-Мар-2016 16:00 ]

  

Скачать .torrent

Размер .torrent файла 14 KB


Размер: 1.18 GB
Хэш (hash) релиза: 8a546cd76ba258335e15181054e2b1eb2e372163

Торренты, похожие на Кеннер Жила-была... || Kenner скачать торрент

Форум Название Автор Размер S L Добавлен
Саундтреки к фильмам и мультфильмам (mp3) ·· (Score) Кеннер / Жила-была... || Kenner / More Than A Miracle (C'era una volta) (by Piero Piccioni) - 2011 (1968 / 1967), MP3, 320 kbps Galfimbul 537410818513 MB 0 0 1459088622

17:23

27-Мар-16

Еще никто не оставлял запись к записи скачать торрент Кеннер Жила-была... || Kenner . Будь первым!

!Обратная связь