Скачать через торрент музыку Аппассионата Appassionata бесплатно без регистрации torrent

Если у вас наблюдаются проблемы со скриншотами, переходом по ссылками, скачиванием торрентов - проблемы в блокировщике рекламы AdBlock. #хорошегоДня!


Статистика раздачи
Размер:  627 MB   |    Зарегистрирован:  1 год 5 месяцев   |    .torrent скачан:  22 раза   |   
Раздают:  1  
   
Загрузка...
 
Автор Сообщение

Galfimbul

avatar Galfimbul


Аппассионата / Appassionata

Жанр: Score
Композитор: Piero Piccioni
Год выпуска диска: 2011
Год выпуска фильма: 1974
Производитель диска: Spain
Издатель (лейбл): Quartet Records
Номер по каталогу: QRSCE028

Аудиокодек: FLAC (*.flac)
Тип рипа: image+.cue
Битрейт аудио: lossless
Продолжительность: 35.37; 71.22
Источник: собственный рип
Наличие сканов в содержимом раздачи: да (600 dpi)

Треклист
Original 1974 Soundtrack Album

01. Strano Mercoledi 2 [04:02.66]
02. La Chatte [02:57.74]
03. Appassionata [03:36.22]
04. Descrizione Di Un Sogno [02:49.28]
05. Valzer Di Valzentina [03:59.37]
06. Presi Per Incantamento [03:04.44]
07. Donna Oggetto Non Identificata [02:45.03]
08. Altri Legami Piu Tenui [04:52.08]
09. La Chatte A La Satie [02:03.15]
10. Appassionata N.2 [03:09.68]
11. Strano Mercoledi 18 [02:16.00]
Exact Audio Copy V1.0 beta 3 from 29. August 2011

EAC extraction logfile from 14. April 2013, 18:56

Piero Piccioni / Appassionata (Disc 1)

Used drive : TSSTcorpCDDVDW SH-S202H Adapter: 0 ID: 0

Read mode : SecureUtilize accurate stream : YesDefeat audio cache : YesMake use of C2 pointers : No

Read offset correction : 6Overread into Lead-In and Lead-Out : NoFill up missing offset samples with silence : YesDelete leading and trailing silent blocks : NoNull samples used in CRC calculations : YesUsed interface : Native Win32 interface for Win NT & 2000

Used output format : Internal WAV RoutinesSample format : 44.100 Hz; 16 Bit; Stereo

TOC of the extracted CD

Track | Start | Length | Start sector | End sector --------------------------------------------------------- 1 | 0:00.00 | 4:02.66 | 0 | 18215 2 | 4:02.66 | 2:57.74 | 18216 | 31564 3 | 7:00.65 | 3:36.22 | 31565 | 47786 4 | 10:37.12 | 2:49.28 | 47787 | 60489 5 | 13:26.40 | 3:59.37 | 60490 | 78451 6 | 17:26.02 | 3:04.44 | 78452 | 92295 7 | 20:30.46 | 2:45.03 | 92296 | 104673 8 | 23:15.49 | 4:52.08 | 104674 | 126581 9 | 28:07.57 | 2:03.15 | 126582 | 135821 10 | 30:10.72 | 3:09.68 | 135822 | 150064 11 | 33:20.65 | 2:16.00 | 150065 | 160264

Range status and errors

Selected range

Filename D:\Piero Piccioni - Appassionata\Piero Piccioni - Appassionata (Disc 1).wav

Peak level 93.0 % Extraction speed 2.7 X Range quality 100.0 % Test CRC A6AC2A56 Copy CRC A6AC2A56 Copy OK

No errors occurred

AccurateRip summary

Track 1 accurately ripped (confidence 1) [F6258195] (AR v2)Track 2 accurately ripped (confidence 1) [90906BD5] (AR v2)Track 3 accurately ripped (confidence 1) [D6B9DE2E] (AR v2)Track 4 accurately ripped (confidence 1) [C923C61D] (AR v2)Track 5 accurately ripped (confidence 1) [6A71CBA1] (AR v2)Track 6 accurately ripped (confidence 1) [3FBD6BF7] (AR v2)Track 7 accurately ripped (confidence 1) [BC17FDAC] (AR v2)Track 8 accurately ripped (confidence 1) [02EFF600] (AR v2)Track 9 accurately ripped (confidence 1) [F12E7377] (AR v2)Track 10 accurately ripped (confidence 1) [12262EAD] (AR v2)Track 11 accurately ripped (confidence 1) [C4190FDF] (AR v2)

All tracks accurately ripped

End of status report

==== Log checksum CEE794467718BA87B3DFDD9339746F2E0F64B530CA41D9EF9B7E707E2BD95607 ====
The Film Score, Alternate Takes and Outtakes

01. Valzer Di Valzentina N.2 [02:35.16]
02. Strano Mercoledi 11 [02:16.71]
03. La Chatte A La Satie N.2 [01:54.09]
04. Presi Per Incantamento N.2 [01:41.55]
05. La Chatte (Organetto Love) [00:55.27]
06. Strano Mercoledi 16 [02:26.43]
07. Valzer Di Valzentina (Sweet Eyes) [02:49.67]
08. Appassionata (Nostalgic Piano) [02:51.74]
09. La Chatte A La Satie (Sax Waltz) [00:57.33]
10. Strano Mercoledi 2 (Misty Mood) [03:29.21]
11. Appassionata (Funny Mood Sax) [02:46.13]
12. Appassionata (Mistic Mood) [01:00.73]
13. Altri Legami Piu Tenui (Saties Memory) [05:02.00]
14. La Chatte A La Satie (Magic Garden) [01:32.70]
15. Valzer Di Valentina (Tenderness Time) [01:37.15]
16. Strano Mercoledi 2 (Love At Dawn) [02:25.52]
17. Appassionata (Discoteque) [02:56.19]
18. La Chatte A La Satie (Little Interlude) [00:26.64]
19. Presi Per Incantamento (Hunted Love) [01:52.12]
20. La Chatte A La Satie (Lively Waltz) [01:32.05]
21. Strano Mercoledi 2 (Brief Magic) [00:49.04]
22. La Chatte A La Satie (Old Fashioned Waltz) [01:44.26]
23. Altri Legami Piu Tenui (Saties Memory 2) [01:12.14]
24. La Chatte A La Satie (Old Fashioned Waltz 2) [00:43.29]
25. Appassionata (Funny Moog) [02:46.30]
26. La Chatte A La Satie (Slow Waltz) [01:54.67]
27. Strano Mercoledi 2 (Magic In The Night) [03:46.37]
28. La Chatte A La Satie (Little Delicious Waltz) [01:31.72]
29. Appassionata (Beat Mood) [01:14.25]
30. Valzer Di Valentina (Piano Waltz) [01:55.09]
31. Presi Per Incantamento (Enchanted Mood) [02:47.04]
32. La Chatte A La Satie (Moog Little Waltz) [01:32.23]
33. Valzer Di Valentina (Cool Day Of Love) [01:52.69]
34. Strano Mercoledi 2 (Magic Wednesday) [04:20.46]
Exact Audio Copy V1.0 beta 3 from 29. August 2011

EAC extraction logfile from 14. April 2013, 19:15

Piero Piccioni / Appassionata (Disc 2)

Used drive : TSSTcorpCDDVDW SH-S202H Adapter: 0 ID: 0

Read mode : SecureUtilize accurate stream : YesDefeat audio cache : YesMake use of C2 pointers : No

Read offset correction : 6Overread into Lead-In and Lead-Out : NoFill up missing offset samples with silence : YesDelete leading and trailing silent blocks : NoNull samples used in CRC calculations : YesUsed interface : Native Win32 interface for Win NT & 2000

Used output format : Internal WAV RoutinesSample format : 44.100 Hz; 16 Bit; Stereo

TOC of the extracted CD

Track | Start | Length | Start sector | End sector --------------------------------------------------------- 1 | 0:00.00 | 2:35.16 | 0 | 11640 2 | 2:35.16 | 2:16.71 | 11641 | 21911 3 | 4:52.12 | 1:54.09 | 21912 | 30470 4 | 6:46.21 | 1:41.55 | 30471 | 38100 5 | 8:28.01 | 0:55.27 | 38101 | 42252 6 | 9:23.28 | 2:26.43 | 42253 | 53245 7 | 11:49.71 | 2:49.67 | 53246 | 65987 8 | 14:39.63 | 2:51.74 | 65988 | 78886 9 | 17:31.62 | 0:57.33 | 78887 | 83194 10 | 18:29.20 | 3:29.21 | 83195 | 98890 11 | 21:58.41 | 2:46.13 | 98891 | 111353 12 | 24:44.54 | 1:00.73 | 111354 | 115926 13 | 25:45.52 | 5:02.00 | 115927 | 138576 14 | 30:47.52 | 1:32.70 | 138577 | 145546 15 | 32:20.47 | 1:37.15 | 145547 | 152836 16 | 33:57.62 | 2:25.52 | 152837 | 163763 17 | 36:23.39 | 2:56.19 | 163764 | 176982 18 | 39:19.58 | 0:26.64 | 176983 | 178996 19 | 39:46.47 | 1:52.12 | 178997 | 187408 20 | 41:38.59 | 1:32.05 | 187409 | 194313 21 | 43:10.64 | 0:49.04 | 194314 | 197992 22 | 43:59.68 | 1:44.26 | 197993 | 205818 23 | 45:44.19 | 1:12.14 | 205819 | 211232 24 | 46:56.33 | 0:43.29 | 211233 | 214486 25 | 47:39.62 | 2:46.30 | 214487 | 226966 26 | 50:26.17 | 1:54.67 | 226967 | 235583 27 | 52:21.09 | 3:46.37 | 235584 | 252570 28 | 56:07.46 | 1:31.72 | 252571 | 259467 29 | 57:39.43 | 1:14.25 | 259468 | 265042 30 | 58:53.68 | 1:55.09 | 265043 | 273676 31 | 60:49.02 | 2:47.04 | 273677 | 286205 32 | 63:36.06 | 1:32.23 | 286206 | 293128 33 | 65:08.29 | 1:52.69 | 293129 | 301597 34 | 67:01.23 | 4:20.46 | 301598 | 321143

Range status and errors

Selected range

Filename D:\Piero Piccioni - Appassionata\Piero Piccioni - Appassionata (Disc 2).wav

Peak level 91.6 % Extraction speed 7.9 X Range quality 100.0 % Test CRC D5E85C40 Copy CRC D5E85C40 Copy OK

No errors occurred

AccurateRip summary

Track 1 accurately ripped (confidence 1) [236DA0E7] (AR v2)Track 2 accurately ripped (confidence 1) [BFE861B0] (AR v2)Track 3 accurately ripped (confidence 1) [49BA78F0] (AR v2)Track 4 accurately ripped (confidence 1) [2011D3BA] (AR v2)Track 5 accurately ripped (confidence 1) [C9E0D1D9] (AR v2)Track 6 accurately ripped (confidence 1) [D2D31E19] (AR v2)Track 7 accurately ripped (confidence 1) [94B3F994] (AR v2)Track 8 accurately ripped (confidence 1) [3B6EE201] (AR v2)Track 9 accurately ripped (confidence 1) [A31436EB] (AR v2)Track 10 accurately ripped (confidence 1) [B88C0949] (AR v2)Track 11 accurately ripped (confidence 1) [DE817182] (AR v2)Track 12 accurately ripped (confidence 1) [6D18F3D9] (AR v2)Track 13 accurately ripped (confidence 1) [2B09C0F0] (AR v2)Track 14 accurately ripped (confidence 1) [982C5BE9] (AR v2)Track 15 accurately ripped (confidence 1) [6C793AC5] (AR v2)Track 16 accurately ripped (confidence 1) [42D767FA] (AR v2)Track 17 accurately ripped (confidence 1) [96FA3DC1] (AR v2)Track 18 accurately ripped (confidence 1) [82C3E2B9] (AR v2)Track 19 accurately ripped (confidence 1) [204304D4] (AR v2)Track 20 accurately ripped (confidence 1) [CF2F9DA6] (AR v2)Track 21 accurately ripped (confidence 1) [C2F2ED78] (AR v2)Track 22 accurately ripped (confidence 1) [AE52CFA7] (AR v2)Track 23 accurately ripped (confidence 1) [FD30F229] (AR v2)Track 24 accurately ripped (confidence 1) [3AB4B98A] (AR v2)Track 25 accurately ripped (confidence 1) [287432EC] (AR v2)Track 26 accurately ripped (confidence 1) [9A6BE8D1] (AR v2)Track 27 accurately ripped (confidence 1) [6F383D48] (AR v2)Track 28 accurately ripped (confidence 1) [DE61BA02] (AR v2)Track 29 accurately ripped (confidence 1) [220E85CA] (AR v2)Track 30 accurately ripped (confidence 1) [021671B6] (AR v2)Track 31 accurately ripped (confidence 1) [E191ED11] (AR v2)Track 32 accurately ripped (confidence 1) [52701BB7] (AR v2)Track 33 accurately ripped (confidence 1) [FE557110] (AR v2)Track 34 accurately ripped (confidence 1) [B867227F] (AR v2)

All tracks accurately ripped

End of status report

==== Log checksum 4E63FA6B9CEFAF5EA5F7344F9FD219B7786E678CD41902690777B72B7FBE47AE ====
Итальянские эротические фильмы... Если кратко, то они бывают разных жанров. Про джалло знают почти все - там главное, чтобы красивую (и максимально раздетую) девушку эффектно убил какой-нибудь маньяк-психопат. Еще есть эротические комедии (да, про ЭТО можно снять еще и смешно!). Об этом подробнее - в следующий раз. И есть просто эротические картины, в которых никого не убивают (почти), и эротика является дополнением сюжетной линии, обычно связанной с какой-то жизненной проблемой главных героев.
Итак, Аппассионата 1974 года относится именно к такому ряду фильмов. Перед нами - классический любовный квадрат - муж, не совсем психически здоровая жена, их дочь (влюбленная в папу) и подруга дочери (в которую, кажется, влюблен сам глава семейства). Героям предстоит разобраться в своих чувствах и отношениях.
Музыку к фильму написал один из самых известных итальянских композиторов Пьеро Пиччони. По своему обыкновению он написал несколько ключевых тем, вариациями на которые он и наполнил картину. Есть и таинственная заглавная тема, есть и прекрасный вальс, и, собственно, тема аппассионаты (ведь одна из героинь - пианистка, которая играет эту мелодию).
О данном издании
На первом диске представлена оригинальная LP-программа, вышедшая в 1974 году. По большей части это была перезапись тем, использованных в фильме для "легкого прослушивания" (как в свое время делал Генри Мнчини - использовал для коммерческого релиза не столько драматические фрагменты своей музыки, а танцевальные/джазовые/диско мелодии).
В 1996 в Японии вышла расширенная версия саундтрека - были добавлены 5 треков, записанных для пластинки, но не включенных на нее (именно эта версия, но в чуть худшем качестве, и была до сего дня представлена на трекере).
Это треки 2, 6, 1, 4 и 3 со второго диска (указана последовательность, как они шли в японском издании).
Остальная музыка на втором диске - все, что было записано непосредственно для фильма, включая альтернативные дубли и неиспользованную музыку.



Трекер:  [ 27-Мар-2016 15:00 ]

  

Скачать .torrent

Размер .torrent файла 13 KB


Размер: 627 MB
Хэш (hash) релиза: 209a50cfc9ef7466b34fb643d4666988366c7b36

Торренты, похожие на Аппассионата Appassionata скачать торрент

Форум Название Автор Размер S L Добавлен
Саундтреки к фильмам и мультфильмам (mp3) ·· (Score) Аппассионата / Appassionata (by Piero Piccioni) - 2011 (1974), MP3, 320 kbps Galfimbul 256897786245 MB 0 0 1459086600

16:50

27-Мар-16

Еще никто не оставлял запись к записи скачать торрент Аппассионата Appassionata . Будь первым!

!Обратная связь