Скачать порно через торрент Девушка снимает на камеру как она писает UnionPeer.org бесплатно онлайн HD качество

Скачать новое порно 2015, 2014 новинки через торрент UnionPeer.org

Порно торрент бесплатно ЮнионПир.орг

Если у вас наблюдаются проблемы со скриншотами, переходом по ссылками, скачиванием торрентов - проблемы в блокировщике рекламы AdBlock. #хорошегоДня!


Статистика раздачи
Размер:  4 MB   |    Зарегистрирован:  1 год 4 месяца   |    .torrent скачан:  362 раза   |   
Раздают:  1  
   
Загрузка...
 
Автор Сообщение

Galfimbul

avatar Galfimbul


Девушка снимает на камеру как она писает

Год производства: 2016 г.
Страна: Россия
Жанр: Amateur.Big Boobs.Reality.Peeing
Продолжительность: 00:00:45

Режиссер: сама
В ролях: Девушка Света

Описание: Светлана зашла в ванну пописать и сняла это на видео

Качество видео: CamRip
Формат видео: MP4
Видео: MPEG4 Video (H264) 640x480 30fps 660 Kbps
Аудио: AAC 44100Hz stereo 133kbps
D:\Pron\Светлана.MP4
General
Complete name : D:\Pron\Светлана.MP4
Format : MPEG-4
Format profile : Base Media
Codec ID : isom
File size : 4.34 MiB
Duration : 45s 783ms
Overall bit rate mode : Variable
Overall bit rate : 795 Kbps
Writing application : Lavf56.25.101
Video #1
ID : 1
Format : AVC
Format/Info : Advanced Video Codec
Format profile : Baseline@L3.0
Format settings, CABAC : No
Format settings, ReFrames : 3 frames
Codec ID : avc1
Codec ID/Info : Advanced Video Coding
Duration : 45s 700ms
Bit rate : 660 Kbps
Width : 640 pixels
Height : 480 pixels
Display aspect ratio : 4:3
Rotation : 90°
Frame rate mode : Constant
Frame rate : 30.000 fps
Color space : YUV
Chroma subsampling : 4:2:0
Bit depth : 8 bits
Scan type : Progressive
Bits/(Pixel*Frame) : 0.072
Stream size : 3.57 MiB (82%)
Writing library : x264 core 142
Encoding settings : cabac=0 / ref=3 / deblock=1:0:0 / analyse=0x1:0x111 / me=hex / subme=7 / psy=1 / psy_rd=1.00:0.00 / mixed_ref=1 / me_range=16 / chroma_me=1 / trellis=1 / 8x8dct=0 / cqm=0 / deadzone=21,11 / fast_pskip=1 / chroma_qp_offset=-2 / threads=4 / lookahead_threads=1 / sliced_threads=0 / nr=0 / decimate=1 / interlaced=0 / bluray_compat=0 / constrained_intra=0 / bframes=0 / weightp=0 / keyint=30 / keyint_min=3 / scenecut=40 / intra_refresh=0 / rc_lookahead=30 / rc=abr / mbtree=1 / bitrate=660 / ratetol=1.0 / qcomp=0.60 / qpmin=0 / qpmax=69 / qpstep=4 / ip_ratio=1.40 / aq=1:1.00
Audio #2
ID : 2
Format : AAC
Format/Info : Advanced Audio Codec
Format profile : LC
Codec ID : 40
Duration : 45s 783ms
Bit rate mode : Variable
Bit rate : 132 Kbps
Maximum bit rate : 160 Kbps
Channel(s) : 2 channels
Channel positions : Front: L R
Sampling rate : 44.1 KHz
Compression mode : Lossy
Stream size : 747 KiB (17%)


Трекер:  [ 27-Мар-2016 13:30 ]

  

Скачать .torrent

Размер .torrent файла 6 KB


Размер: 4 MB
Хэш (hash) релиза: 79429a890a78bbf8f47acfbf5d534d4a76802c4b

Еще никто не оставлял запись к записи скачать торрент Девушка снимает на камеру как она писает . Будь первым!

!Обратная связь