Скачать через торрент Детективное агентство Милки Холмс: Альтернтива Tantei Opera Milky Holmes: Alternative бесплатно Аниме Все серии на русском torrent

Если у вас наблюдаются проблемы со скриншотами, переходом по ссылками, скачиванием торрентов - проблемы в блокировщике рекламы AdBlock. #хорошегоДня!


Статистика раздачи
Размер:  1.66 GB   |    Зарегистрирован:  1 год 6 месяцев   |    .torrent скачан:  24 раза   |   
Раздают:  1  
   
Загрузка...
 
Автор Сообщение

Galfimbul

avatar Galfimbul



Детективное агентство Милки Холмс: Альтернтива / Tantei Opera Milky Holmes: Alternative
Год выпуска: 2012 г.
Страна: Япония
Жанр: Приключения, Комедия
Тип: Special
Продолжительность: 02 эп. по 00:23:26
Режиссер: Ивасаки Ёсиаки
Студия: Artland, J.C. Staff
Перевод:
<ol class="post-ul">
Русские субтитры от Jerry & Ctepka
</ol>
Описание:
Милки Холмс - команда детективов, состоящая из четырех девушек со сверхъестественными способностями, известными как "Игрушки" В этой альтернативной истории, вместо того чтобы потерять Игрушки и скатиться на дно, как в оригинальном сериале, они находятся на пути к известности. Под руководством своего учителя Кобаяши Опера юные детективы решают очередную загадку.
Информационные ссылки: World Art || AniDB || MAL
Качество: BDRip | Рип: [Ohys-Raws]
Тип релиза: Без хардсаба
Формат видео: MP4
Наличие линковки: Нет
Видео: AVC, 1280x720, ~4674 kbps, 23.976 fps [8 bit]
Аудио:
1. Japanese AAC, 48.0 KHz, ~210 kbps, 2 ch;
Субтитры:
<ol class="post-ul">
Russian: ASS, внешние;
</ol>
General Format : MPEG-4 Format profile : Base Media Codec ID : isom File size : 820 MiB Duration : 23mn 26s Overall bit rate mode : Variable Overall bit rate : 4 888 Kbps Encoded date : UTC 2016-03-20 03:04:49 Tagged date : UTC 2016-03-20 03:04:49 Video #1 ID : 1 Format : AVC Format/Info : Advanced Video Codec Format profile : Main@L4.1 Format settings, CABAC : Yes Format settings, ReFrames : 4 frames Codec ID : avc1 Codec ID/Info : Advanced Video Coding Duration : 23mn 26s Bit rate : 4 674 Kbps Maximum bit rate : 15.6 Mbps Width : 1 280 pixels Height : 720 pixels Display aspect ratio : 16:9 Frame rate mode : Constant Frame rate : 23.976 fps Color space : YUV Chroma subsampling : 4:2:0 Bit depth : 8 bits Scan type : Progressive Bits/(Pixel*Frame) : 0.212 Stream size : 784 MiB (96%) Writing library : x264 core 148 r2665 a01e339 Encoding settings : cabac=1 / ref=3 / deblock=1:0:0 / analyse=0x1:0x131 / me=umh / subme=9 / psy=1 / psy_rd=1.00:0.00 / mixed_ref=1 / me_range=32 / chroma_me=1 / trellis=1 / 8x8dct=0 / cqm=0 / deadzone=21,11 / fast_pskip=1 / chroma_qp_offset=-2 / threads=12 / lookahead_threads=1 / sliced_threads=0 / nr=0 / decimate=1 / interlaced=0 / bluray_compat=0 / constrained_intra=0 / bframes=3 / b_pyramid=2 / b_adapt=1 / b_bias=0 / direct=1 / weightb=1 / open_gop=0 / weightp=2 / keyint=240 / keyint_min=1 / scenecut=40 / intra_refresh=0 / rc_lookahead=40 / rc=crf / mbtree=1 / crf=17.0 / qcomp=0.60 / qpmin=0 / qpmax=69 / qpstep=4 / ip_ratio=1.40 / aq=1:1.00 Encoded date : UTC 2016-03-20 03:04:49 Tagged date : UTC 2016-03-20 03:05:06 Audio #2 ID : 2 Format : AAC Format/Info : Advanced Audio Codec Format profile : LC Codec ID : 40 Duration : 23mn 26s Bit rate mode : Variable Bit rate : 210 Kbps Maximum bit rate : 258 Kbps Channel(s) : 2 channels Channel positions : Front: L R Sampling rate : 48.0 KHz Compression mode : Lossy Stream size : 35.2 MiB (4%) Language : Japanese Encoded date : UTC 2016-03-20 02:57:36 Tagged date : UTC 2016-03-20 03:05:06

01. Кобаяши Опера & Пять картин / Kobayashi Opera and the Five Paintings
02. Кобаяши Опера & Легендарный Ворон / Kobayashi Opera and the Raven of the Empty Sky
<a href="viewtopic.php?t=4507479" class="postLink">...4507479</a>
- BDRip


Трекер:  [ 20-Мар-2016 09:30 ]

  

Скачать .torrent

Размер .torrent файла 17 KB


Размер: 1.66 GB
Хэш (hash) релиза: 38fd073cfbba8a7e38b03b468a3a14ad56db2519
Подписка на обновления:

Торренты, похожие на Детективное агентство Милки Холмс: Альтернтива Tantei Opera Milky Holmes: Alternative скачать торрент

Форум Название Автор Размер S L Добавлен
Аниме | HD Rips ·· Детективное агентство Милки Холмс: Альтернтива / Tantei Opera Milky Holmes: Alternative [Special] [2 из 2] [Без хардсаба] [JAP, SUB] [2010 г., комедия, HDTVRip] [720p] Galfimbul 789710329753 MB 0 0 1376145880

17:44

10-Авг-13

Еще никто не оставлял запись к записи скачать торрент Детективное агентство Милки Холмс: Альтернтива Tantei Opera Milky Holmes: Alternative . Будь первым!

!Обратная связь