Скачать через торрент Сладкая валерьянка Sweet Valerian бесплатно Аниме Все серии на русском torrent

Если у вас наблюдаются проблемы со скриншотами, переходом по ссылками, скачиванием торрентов - проблемы в блокировщике рекламы AdBlock. #хорошегоДня!


Статистика раздачи
Размер:  6.52 GB   |    Зарегистрирован:  1 год 6 месяцев   |    .torrent скачан:  55 раз   |   
Раздают:  1  
   
Загрузка...
 
Автор Сообщение

Galfimbul

avatar Galfimbul


Сладкая валерьянка / Sweet Valerian

Страна: Япония
Год выпуска: 2004 г.
Жанр: комедия, махо-сёдзё, сёдзё
Тип: TV
Продолжительность: 26 эп, ~3 мин. серия
Режиссер: Сакурай Хироаки
Студия: Madhouse, CLAMP

Описание: Канако мечтает стать изобретательницей и разбогатеть. Поппо разрабатывает видеоигры. Кэйто – юная фотомодель и «светская львица». А все вместе они – отряд «Сладкая валерьянка», защищающий родной город от монстров, раздувающих людские стрессы. Правда, для того, чтобы обрести магическую силу, девочкам приходится трансформироваться в зайчиков – именно с таким условием Веселый Ушастый монах снабдил их волшебными способностями...

© Анастасия Розанова, World Art

Доп. информация: Японское издание. Перевод с японского и озвучивание - Юки Нацуи по заказу компании Animegroup в 2005-2006 году.

Качество: DVD5
Формат экрана: 4:3
Система / Разрешение: NTSC (720x480)
Средний битрейт: 9 000 Kbps
Аудио: AC-3, 192 Kbps, 2 channels Язык Русский
Аудио 2: AC-3, 448 Kbps, 2 channels Язык Японский
Субтитры: Нет
GeneralComplete name : D:\Films\Sweet Valerian\1\VIDEO_TS\VTS_01_1.VOBFormat : MPEG-PSFile size : 1 024 MiBDuration : 14mn 34sOverall bit rate : 9 814 Kbps

VideoID : 224 (0xE0)Format : MPEG VideoFormat version : Version 2Format profile : Main@MainFormat settings, BVOP : YesFormat settings, Matrix : CustomFormat settings, GOP : VariableFormat settings, picture st : FrameDuration : 14mn 34sBit rate : 9 000 KbpsWidth : 720 pixelsHeight : 480 pixelsDisplay aspect ratio : 4:3Frame rate : 29.970 fpsStandard : NTSCColor space : YUVChroma subsampling : 4:2:0Bit depth : 8 bitsScan type : InterlacedScan order : Top Field FirstCompression mode : LossyBits/(Pixel*Frame) : 0.869Time code of first frame : 01:00:35:00Time code source : Group of pictures headerStream size : 936 MiB (91%)

Audio #1ID : 189 (0xBD)-128 (0x80)Format : AC-3Format/Info : Audio Coding 3Mode extension : CM (complete main)Format settings, Endianness : BigMuxing mode : DVD-VideoDuration : 14mn 34sBit rate mode : ConstantBit rate : 192 KbpsChannel(s) : 2 channelsChannel positions : Front: L RSampling rate : 48.0 KHzCompression mode : LossyStream size : 20.0 MiB (2%)

Audio #2ID : 189 (0xBD)-129 (0x81)Format : AC-3Format/Info : Audio Coding 3Mode extension : CM (complete main)Format settings, Endianness : BigMuxing mode : DVD-VideoDuration : 14mn 34sBit rate mode : ConstantBit rate : 448 KbpsChannel(s) : 2 channelsChannel positions : Front: L RSampling rate : 48.0 KHzCompression mode : LossyStream size : 46.7 MiB (5%)

Menu


Трекер:  [ 20-Мар-2016 00:00 ]

  

Скачать .torrent

Размер .torrent файла 19 KB


Размер: 6.52 GB
Хэш (hash) релиза: 34d11d94531cb43b8dba7407ed92b7fe541fe11d
Подписка на обновления:

Еще никто не оставлял запись к записи скачать торрент Сладкая валерьянка Sweet Valerian . Будь первым!

!Обратная связь