Скачать через торрент музыку Apocalypse Second World War бесплатно без регистрации torrent

Если у вас наблюдаются проблемы со скриншотами, переходом по ссылками, скачиванием торрентов - проблемы в блокировщике рекламы AdBlock. #хорошегоДня!


Статистика раздачи
Размер:  370 MB   |    Зарегистрирован:  1 год 6 месяцев   |    .torrent скачан:  20 раз   |   
Раздают:  2  
   
Загрузка...
 
Автор Сообщение

Galfimbul

avatar Galfimbul


Apocalypse Second World War

Название альбома: Apocalypse Second World War Original Soundtrack
Жанр: Score
Композитор: Kenji Kawai
Год выпуска диска: 2012
Год выпуска фильма: 2012
Страна-производитель диска: France
Издатель (лейбл): Wonderlous Music
Номер по каталогу: B009WSA9C0
Аудиокодек: FLAC (*.flac)
Тип рипа: tracks+.cue
Битрейт аудио: lossless
Продолжительность: 1:14:28
Источник: собственный рип
Треклист:
01 - Apocalypse
02 - Shoah
03 - The Trap
04 - Farewell to Peace
05 - The Attack
06 - Neutral Theme
07 - Farewell to Peace - Strings Only
08 - Exodus
09 - Trap Invasion
10 - Front Line
11 - Enigma and Dunkirk
12 - Pacific Attack
13 - Ve Day
14 - Liberation
15 - Liberation 2
16 - Hiroshima
17 - Peace
18 - Rise of Nazism
19 - Moscow
20 - Antoine de Saint-Exupery
21 - Ghetto
22 - Paulua
23 - Mac Arthur
24 - Life Before War
25 - Retreat
26 - Closing Theme
Exact Audio Copy V1.0 beta 3 from 29. August 2011

EAC extraction logfile from 1. September 2014, 20:51

Kenji Kawai / Apocalypse Second World War Original Soundtrack

Used drive : Optiarc DVD RW AD-7590A Adapter: 1 ID: 0

Read mode : SecureUtilize accurate stream : YesDefeat audio cache : YesMake use of C2 pointers : No

Read offset correction : 48Overread into Lead-In and Lead-Out : NoFill up missing offset samples with silence : YesDelete leading and trailing silent blocks : NoNull samples used in CRC calculations : YesUsed interface : Native Win32 interface for Win NT & 2000

Used output format : Internal WAV RoutinesSample format : 44.100 Hz; 16 Bit; Stereo

TOC of the extracted CD

Track | Start | Length | Start sector | End sector --------------------------------------------------------- 1 | 0:00.00 | 3:11.50 | 0 | 14374 2 | 3:11.50 | 2:20.38 | 14375 | 24912 3 | 5:32.13 | 2:54.00 | 24913 | 37962 4 | 8:26.13 | 3:52.00 | 37963 | 55362 5 | 12:18.13 | 2:59.50 | 55363 | 68837 6 | 15:17.63 | 2:28.12 | 68838 | 79949 7 | 17:46.00 | 3:35.38 | 79950 | 96112 8 | 21:21.38 | 3:26.37 | 96113 | 111599 9 | 24:48.00 | 3:11.13 | 111600 | 125937 10 | 27:59.13 | 1:17.12 | 125938 | 131724 11 | 29:16.25 | 6:37.25 | 131725 | 161524 12 | 35:53.50 | 2:19.50 | 161525 | 171999 13 | 38:13.25 | 1:58.00 | 172000 | 180849 14 | 40:11.25 | 3:08.50 | 180850 | 194999 15 | 43:20.00 | 2:00.25 | 195000 | 204024 16 | 45:20.25 | 2:14.25 | 204025 | 214099 17 | 47:34.50 | 2:48.12 | 214100 | 226711 18 | 50:22.62 | 4:03.13 | 226712 | 244949 19 | 54:26.00 | 3:09.38 | 244950 | 259162 20 | 57:35.38 | 1:51.12 | 259163 | 267499 21 | 59:26.50 | 2:06.50 | 267500 | 276999 22 | 61:33.25 | 1:20.00 | 277000 | 282999 23 | 62:53.25 | 2:57.38 | 283000 | 296312 24 | 65:50.63 | 3:40.37 | 296313 | 312849 25 | 69:31.25 | 3:16.10 | 312850 | 327559 26 | 72:47.35 | 1:40.62 | 327560 | 335121

Range status and errors

Selected range

Filename C:\Kenji Kawai - Apocalypse Second World War Original Soundtrack.wav

Peak level 95.9 % Extraction speed 5.4 X Range quality 100.0 % Copy CRC 05423EC9 Copy OK

No errors occurred

AccurateRip summary

Track 1 not present in databaseTrack 2 not present in databaseTrack 3 not present in databaseTrack 4 not present in databaseTrack 5 not present in databaseTrack 6 not present in databaseTrack 7 not present in databaseTrack 8 not present in databaseTrack 9 not present in databaseTrack 10 not present in databaseTrack 11 not present in databaseTrack 12 not present in databaseTrack 13 not present in databaseTrack 14 not present in databaseTrack 15 not present in databaseTrack 16 not present in databaseTrack 17 not present in databaseTrack 18 not present in databaseTrack 19 not present in databaseTrack 20 not present in databaseTrack 21 not present in databaseTrack 22 not present in databaseTrack 23 not present in databaseTrack 24 not present in databaseTrack 25 not present in databaseTrack 26 not present in database

None of the tracks are present in the AccurateRip database

End of status report

---- CUETools DB Plugin V2.1.3

[CTDB TOCID: soXIoZvyHJeopUwaJlymenVq0l0-] found, Submit result: soXIoZvyHJeopUwaJlymenVq0l0- has been confirmed[948c69cc] (4/4) Accurately ripped
REM DATE 2009REM DISCID 9411741AREM COMMENT ExactAudioCopy v1.0b3PERFORMER "Kenji Kawai"TITLE "Apocalypse Second World War Original Soundtrack"FILE "01 - Apocalypse.flac" WAVE TRACK 01 AUDIO TITLE "Apocalypse" INDEX 01 00:00:00FILE "02 - Shoah.flac" WAVE TRACK 02 AUDIO TITLE "Shoah" INDEX 01 00:00:00FILE "03 - The Trap.flac" WAVE TRACK 03 AUDIO TITLE "The Trap" INDEX 01 00:00:00FILE "04 - Farewell to Peace.flac" WAVE TRACK 04 AUDIO TITLE "Farewell to Peace" INDEX 01 00:00:00FILE "05 - The Attack.flac" WAVE TRACK 05 AUDIO TITLE "The Attack" INDEX 01 00:00:00FILE "06 - Neutral Theme.flac" WAVE TRACK 06 AUDIO TITLE "Neutral Theme" INDEX 01 00:00:00FILE "07 - Farewell to Peace - Strings Only.flac" WAVE TRACK 07 AUDIO TITLE "Farewell to Peace - Strings Only" INDEX 01 00:00:00FILE "08 - Exodus.flac" WAVE TRACK 08 AUDIO TITLE "Exodus" INDEX 01 00:00:00FILE "09 - Trap Invasion.flac" WAVE TRACK 09 AUDIO TITLE "Trap Invasion" INDEX 01 00:00:00FILE "10 - Front Line.flac" WAVE TRACK 10 AUDIO TITLE "Front Line" INDEX 01 00:00:00FILE "11 - Enigma and Dunkirk.flac" WAVE TRACK 11 AUDIO TITLE "Enigma and Dunkirk" INDEX 01 00:00:00FILE "12 - Pacific Attack.flac" WAVE TRACK 12 AUDIO TITLE "Pacific Attack" INDEX 01 00:00:00FILE "13 - Ve Day.flac" WAVE TRACK 13 AUDIO TITLE "Ve Day" INDEX 01 00:00:00FILE "14 - Liberation.flac" WAVE TRACK 14 AUDIO TITLE "Liberation" INDEX 01 00:00:00FILE "15 - Liberation 2.flac" WAVE TRACK 15 AUDIO TITLE "Liberation 2" INDEX 01 00:00:00FILE "16 - Hiroshima.flac" WAVE TRACK 16 AUDIO TITLE "Hiroshima" INDEX 01 00:00:00FILE "17 - Peace.flac" WAVE TRACK 17 AUDIO TITLE "Peace" INDEX 01 00:00:00FILE "18 - Rise of Nazism.flac" WAVE TRACK 18 AUDIO TITLE "Rise of Nazism" INDEX 01 00:00:00FILE "19 - Moscow.flac" WAVE TRACK 19 AUDIO TITLE "Moscow" INDEX 01 00:00:00FILE "20 - Antoine de Saint-Exupery.flac" WAVE TRACK 20 AUDIO TITLE "Antoine de Saint-Exupery" INDEX 01 00:00:00FILE "21 - Ghetto.flac" WAVE TRACK 21 AUDIO TITLE "Ghetto" INDEX 01 00:00:00FILE "22 - Paulua.flac" WAVE TRACK 22 AUDIO TITLE "Paulua" INDEX 01 00:00:00FILE "23 - Mac Arthur.flac" WAVE TRACK 23 AUDIO TITLE "Mac Arthur" INDEX 01 00:00:00FILE "24 - Life Before War.flac" WAVE TRACK 24 AUDIO TITLE "Life Before War" INDEX 01 00:00:00FILE "25 - Retreat.flac" WAVE TRACK 25 AUDIO TITLE "Retreat" INDEX 01 00:00:00FILE "26 - Closing Theme.flac" WAVE TRACK 26 AUDIO TITLE "Closing Theme" INDEX 01 00:00:00
AccurateRip summary

Track 1 not present in databaseTrack 2 not present in databaseTrack 3 not present in databaseTrack 4 not present in databaseTrack 5 not present in databaseTrack 6 not present in databaseTrack 7 not present in databaseTrack 8 not present in databaseTrack 9 not present in databaseTrack 10 not present in databaseTrack 11 not present in databaseTrack 12 not present in databaseTrack 13 not present in databaseTrack 14 not present in databaseTrack 15 not present in databaseTrack 16 not present in databaseTrack 17 not present in databaseTrack 18 not present in databaseTrack 19 not present in databaseTrack 20 not present in databaseTrack 21 not present in databaseTrack 22 not present in databaseTrack 23 not present in databaseTrack 24 not present in databaseTrack 25 not present in databaseTrack 26 not present in database

None of the tracks are present in the AccurateRip database

End of status report

---- CUETools DB Plugin V2.1.3

[CTDB TOCID: soXIoZvyHJeopUwaJlymenVq0l0-] found, Submit result: soXIoZvyHJeopUwaJlymenVq0l0- has been confirmed[948c69cc] (4/4) Accurately ripped


Трекер:  [ 18-Мар-2016 21:30 ]

  

Скачать .torrent

Размер .torrent файла 16 KB


Размер: 370 MB
Хэш (hash) релиза: c583a37aa50e2799157f08f5faa0cf8a4be74e7a

Еще никто не оставлял запись к записи скачать торрент Apocalypse Second World War . Будь первым!

!Обратная связь