Скачать через торрент Паразит: Учение о жизни Kiseijuu: Sei no Kakuritsu бесплатно Аниме Все серии на русском torrent

Если у вас наблюдаются проблемы со скриншотами, переходом по ссылками, скачиванием торрентов - проблемы в блокировщике рекламы AdBlock. #хорошегоДня!


Статистика раздачи
Размер:  12.59 GB   |    Зарегистрирован:  1 год 6 месяцев   |    .torrent скачан:  50 раз   |   
Раздают:  1  
   
Загрузка...
 
Автор Сообщение

Galfimbul

avatar Galfimbul


Паразит: Учение о жизни / Kiseijuu: Sei no Kakuritsu / Parasyte - the maxim
Страна: Япония
Год выпуска: 2014 г.
Жанр: Приключения, ужасы, фантастика, триллер
Тип: TV
Продолжительность: 24 эп, по 24 мин.
Режиссер: Шимизу Кеничи
Студия:

Описание: Однажды летом, в одном из городков Японии, пошел странный "снег". Казалось, будто это небольшие, пушистые шарики опустились на землю.
Они выпали в одну ночь, не оставив за собой и следа, и никто и никогда не узнал бы об этом странном явлении, если бы на этом странности закончились. Но, как оказалось, это было только начало.
Последствия этих осадков в дальнейшем повлияли на судьбу обычного японского подростка, Шиничи Изуми... И на судьбу всего человечества.
Субтитры ансаб-альянса [Firegorn Team]

Перевод: Misto_Rever
Редактирование: TRAN'e
Оформление: Redgar-firegorn
Качество: BDRip
Тип релиза: Без хардсаба
Разбитие по главам: Да
Формат видео: MKV
Наличие линковки: Нет
Релиз/Автор рипа: Redgar-Firegorn
Видео: H.264 | 1280x720 | 3000 kbps | 23.976 fps | 8 bit
Аудио Jap: ACC | 192 kbps | 48 Hz | 2 ch
Субтитры: .ass | В составе контейнера | Включены по умолчанию.
GeneralUnique ID : 227755277086530701376655258355047988713 (0xAB581220D24D038B9167714389BDFDE9)Complete name : D:\Раздачи\Kiseijuu; Sei no Kakuritsu [720p]\[Firegorn Team ] Kiseijuu; Sei no Kakuritsu 12 (BDRip 1280x720 x264 AAC).mkvFormat : MatroskaFormat version : Version 4 / Version 2File size : 544 MiBDuration : 22mn 51sOverall bit rate : 3 330 KbpsEncoded date : UTC 2016-03-16 20:50:24Writing application : mkvmerge v8.8.0 ('Wind at my back') 64bitWriting library : libebml v1.3.3 + libmatroska v1.4.4 / Lavf57.26.100Attachments : Comfortaa-Regular_0.ttf / bard____0_0.ttf / Comic_Sans_0_0.ttf

VideoID : 2Format : AVCFormat/Info : Advanced Video CodecFormat profile : Main@L4.1Format settings, CABAC : YesFormat settings, ReFrames : 2 framesCodec ID : V_MPEG4/ISO/AVCDuration : 22mn 51sBit rate : 3 000 KbpsWidth : 1 280 pixelsHeight : 720 pixelsDisplay aspect ratio : 16:9Frame rate mode : ConstantFrame rate : 23.976 fpsColor space : YUVChroma subsampling : 4:2:0Bit depth : 8 bitsScan type : ProgressiveBits/(Pixel*Frame) : 0.136Stream size : 511 MiB (94%)Writing library : x264 core 148 r2665Encoding settings : cabac=1 / ref=2 / deblock=1:0:0 / analyse=0x1:0x131 / me=hex / subme=7 / psy=1 / psy_rd=1.00:0.00 / mixed_ref=0 / me_range=16 / chroma_me=1 / trellis=1 / 8x8dct=0 / cqm=0 / deadzone=21,11 / fast_pskip=1 / chroma_qp_offset=-2 / threads=12 / lookahead_threads=2 / sliced_threads=0 / nr=0 / decimate=1 / interlaced=0 / bluray_compat=0 / constrained_intra=0 / bframes=3 / b_pyramid=0 / b_adapt=1 / b_bias=0 / direct=3 / weightb=1 / open_gop=0 / weightp=2 / keyint=239 / keyint_min=23 / scenecut=40 / intra_refresh=0 / rc_lookahead=40 / rc=abr / mbtree=1 / bitrate=3000 / ratetol=1.0 / qcomp=0.60 / qpmin=10 / qpmax=69 / qpstep=4 / vbv_maxrate=24000 / vbv_bufsize=24000 / nal_hrd=none / filler=0 / ip_ratio=1.40 / aq=3:1.00Default : YesForced : No

AudioID : 3Format : AACFormat/Info : Advanced Audio CodecFormat profile : LCCodec ID : A_AACDuration : 22mn 51sBit rate : 197 KbpsChannel(s) : 2 channelsChannel positions : Front: L RSampling rate : 48.0 KHzFrame rate : 46.875 fps (1024 spf)Compression mode : LossyStream size : 32.2 MiB (6%)Writing library : Lavc57.25.101 aacLanguage : JapaneseDefault : YesForced : No

TextID : 1Format : ASSCodec ID : S_TEXT/ASSCodec ID/Info : Advanced Sub Station AlphaDuration : 22mn 30sBit rate : 295 bpsCount of elements : 484Compression mode : LosslessStream size : 48.8 KiB (0%)Title : [Firegorn Team]Language : RussianDefault : YesForced : Yes

Menu00:00:00.000 : :Chapter 0100:00:23.023 : :Chapter 0200:01:53.030 : :Chapter 0300:12:51.020 : :Chapter 0400:22:35.020 : :Chapter 05
Стадия:01 Метаморфоза
Стадия:02 Демон во плоти
Стадия:03 Пир
Стадия:04 Растрёпанные Волосы
Стадия:05 Странник
Стадия:06 И вновь восходит солнце
Стадия:07 Пролетевшая тёмная ночь
Стадия:08 Точка замерзания
Стадия:09 За гранью добра и зла
Стадия:10 Эта безумная вселенная
Стадия:11 Синяя птица
Стадия:12 Сердце
Стадия:13 Привет, печаль
Стадия:14 Ген эгоизма
Стадия:15 Беда, что надвигается
Стадия:16 Счастливая Семья
Стадия:17 Приключения умирающего детектива
Стадия:18 Больше, чем человек
Стадия:19 Хладнокровность
Стадия:20 Преступление и наказание
Стадия:21 Характер и дух
Стадия:22 Покой и Пробуждение
Стадия:23 Жизнь и клятва
Последняя Стадия (24): Паразит
<a href="viewtopic.php?t=4841408" class="postLink">...4841408</a>
<a href="viewtopic.php?t=4841269" class="postLink">...4841269</a>
<a href="viewtopic.php?t=4842578" class="postLink">...4842578</a>
<a href="viewtopic.php?t=4844515" class="postLink">...4844515</a>
<a href="viewtopic.php?t=4847410" class="postLink">...4847410</a>
WebRip Здесь BDRip
<a href="viewtopic.php?t=5087082" class="postLink">...5087082</a>
1080 vs 720
<a href="tracker.php?rid=16325518" class="postLink"> </a>
Не забываем нажимать на кнопку "сказать спасибо" тем самым выражая свою благодарность!!!
Раздавать буду преимущественно с 7:00 до 00:00

Трекер:  [ 17-Мар-2016 00:00 ]

  

Скачать .torrent

Размер .torrent файла 34 KB


Размер: 12.59 GB
Хэш (hash) релиза: ff60a18061a61b56c1ee2dfb699b2128c589ce3d
Подписка на обновления:

Торренты, похожие на Паразит: Учение о жизни Kiseijuu: Sei no Kakuritsu скачать торрент

Форум Название Автор Размер S L Добавлен
Аниме | HD Rips ·· Паразит: Учение о жизни / Kiseijuu: Sei no Kakuritsu / Parasyte: The Maxim (Шимизу Кеничи) [TV] [24 из 24] [без хардсаба] [RUS(ext), JAP+SUB] [2014 г., приключения, фантастика, ужасы, драма, BDRemux] [1080p] Galfimbul 156686251342145.93 GB 0 0 1455092468

11:21

10-Фев-16

Аниме | Rips ·· Паразит: Учение о жизни / Kiseijuu: Sei no Kakuritsu / Parasyte: The Maxim [TV] [01 из 24] [Без хардсаба] [RUS(int), JAP+SUB] [2014 г., приключения, ужасы, HDTVRip] [HWP] Galfimbul 277802230265 MB 0 0 1413105037

12:10

12-Окт-14

Аниме | Rips ·· Паразит: учение о жизни / Parasyte - the maxim / Kiseijuu: Sei no Kakuritsu [TV] [01 из 24] [Без хардсаба] [RUS(int)] [2014 г., приключения, ужасы, фантастика, WEBRip] [720p] Galfimbul 325968439311 MB 0 0 1412993264

05:07

11-Окт-14

Аниме | Rips ·· Паразит: учение о жизни / Parasyte - the maxim / Kiseijuu: Sei no Kakuritsu / [TV] [1 из 24] [Без хардсаба] [RUS(int), JAP+SUB] [2014 г., приключения, ужасы, WEBRip] [1080p] Galfimbul 592182350565 MB 0 0 1412975076

00:04

11-Окт-14

Аниме | Rips ·· Паразит: учение о жизни / Parasyte - the maxim / Kiseijuu: Sei no Kakuritsu / [TV] [1 из 24] [Без хардсаба] [RUS(int), JAP+SUB] [2014 г., приключения, ужасы, WEBRip] [720p] Galfimbul 369647592353 MB 0 0 1412971509

23:05

10-Окт-14

Аниме | HD Rips ·· Паразит: Учение о жизни / Parasyte - the maxim / Kiseijuu: Sei no Kakuritsu [TV] [1 из 24] [Без хардсаба] [JAP, SUB] [2014 г., приключения, ужасы, WEBRip] [1080p] Galfimbul 548596292523 MB 0 0 1412872517

19:35

9-Окт-14

Еще никто не оставлял запись к записи скачать торрент Паразит: Учение о жизни Kiseijuu: Sei no Kakuritsu . Будь первым!

!Обратная связь