Скачать через торрент Приключения Дигимонов Три Digimon Adventure Tri бесплатно Аниме Все серии на русском torrent

Если у вас наблюдаются проблемы со скриншотами, переходом по ссылками, скачиванием торрентов - проблемы в блокировщике рекламы AdBlock. #хорошегоДня!


Статистика раздачи
Размер:  2.84 GB   |    Зарегистрирован:  1 год 6 месяцев   |    .torrent скачан:  21 раз   |   
Раздают:  1  
   
Загрузка...
 
Автор Сообщение

Galfimbul

avatar Galfimbul


Приключения Дигимонов Три / Digimon Adventure Tri

Страна: Япония
Год выпуска: 2015 г.
Жанр: сёнэн, приключения, фэнтези
Тип: TV
Продолжительность: 8 эп, ~24 мин. серия
Режиссер: Кейтаро Мотонага
Студия: Toei Animation

Описание: Главные герои первых двух сезонов Digimon Adventure и Digimon Adventure 02 вернулись вместе с долгожданным продолжением под названием Digimon Adventure Tri. На этот раз повзрослевшие Тайчи, Ямато, Сора и остальные избранные дети сталкиваются с внезапно открывающимися цифровыми порталами, благодаря которым в Токио вторгаются дикие дигимоны.

Доп. информация: Перевод illuminor.

Качество: HDTVRip
Тип релиза: Хардсаб
Формат видео: MP4
Наличие линковки: Нет
Видео: H264, 1280x720, 23.976 fps, ~1950 Kbps, 8 bits
Аудио: JPN, AAC, 2ch, 44100Hz, 192 kbps (в составе контейнера) Язык Японский
Субтитры: русский хардсаб
GeneralComplete name : D:\Аниме\Digimon\Digimon Adventure Tri\Digimon Adventure Tri 01.mp4Format : MPEG-4Format profile : Base MediaCodec ID : isomFile size : 373 MiBDuration : 24mn 01sOverall bit rate : 1 970 KbpsEncoded date : UTC 2016-03-15 13:42:06Tagged date : UTC 2016-03-15 13:43:10

VideoID : 1Format : AVCFormat/Info : Advanced Video CodecFormat profile : High@L4.1Format settings, CABAC : YesFormat settings, ReFrames : 4 framesCodec ID : avc1Codec ID/Info : Advanced Video CodingDuration : 24m 01sBit rate : 1 952 KbpsMaximum bit rate : 15.4 MbpsWidth : 1 280 pixelsHeight : 720 pixelsDisplay aspect ratio : 16:9Frame rate mode : ConstantFrame rate : 23.976 fpsColor space : YUVChroma subsampling : 4:2:0Bit depth : 8 bitsScan type : ProgressiveBits/(Pixel*Frame) : 0.067Stream size : 210 MiB (86%)Title : 264:fps=23.976@GPAC0.5.1-DEV-rev4283Writing library : x264 core 129 r2245+729M 1a52e03Encoding settings : cabac=1 / ref=4 / deblock=1:1:-1 / analyse=0x3:0x113 / me=umh / subme=9 / psy=1 / fade_compensate=0.00 / psy_rd=1.00:0.00 / mixed_ref=1 / me_range=24 / chroma_me=1 / trellis=2 / 8x8dct=1 / cqm=0 / deadzone=21,11 / fast_pskip=1 / chroma_qp_offset=-2 / threads=8 / lookahead_threads=1 / sliced_threads=0 / nr=0 / decimate=1 / interlaced=0 / bluray_compat=0 / constrained_intra=0 / fgo=0 / bframes=9 / b_pyramid=2 / b_adapt=2 / b_bias=0 / direct=1 / weightb=1 / open_gop=0 / weightp=2 / keyint=240 / keyint_min=24 / scenecut=40 / intra_refresh=0 / rc=crf / mbtree=0 / crf=19.0 / qcomp=0.72 / qpmin=0 / qpmax=69 / qpstep=4 / ip_ratio=1.40 / pb_ratio=1.30 / aq=1:0.85Encoded date : UTC 2016-03-15 13:56:43Tagged date : UTC 2016-03-15 20:57:52Color primaries : BT.709-5, BT.1361, IEC 61966-2-4, SMPTE RP177Transfer characteristics : BT.709-5, BT.1361Matrix coefficients : BT.709-5, BT.1361, IEC 61966-2-4 709, SMPTE RP177

AudioID : 2Format : AACFormat/Info : Advanced Audio CodecFormat profile : LCCodec ID : 40Duration : 24m 01sBit rate mode : VariableBit rate : 192 KbpsMaximum bit rate : 245 KbpsChannel(s) : 2 channelsChannel positions : Front: L RSampling rate : 44.1 KHzCompression mode : LossyStream size : 162 MiB (14%)Language : JapaneseEncoded date : UTC 2016-03-15 13:58:20Tagged date : UTC 2016-03-15 13:59:27
01 - Воссоединение. Часть 1.
02 - Воссоединение. Часть 2.
03 - Воссоединение. Часть 3.
04 - Воссоединение. Часть 4.
05 - Решимость. Часть 1.
06 - Решимость. Часть 2.
07 - Решимость. Часть 3.
08 - Решимость. Часть 4.
8 эпизодов, наличие субтитров


Трекер:  [ 15-Мар-2016 14:30 ]

  

Скачать .torrent

Размер .torrent файла 15 KB


Размер: 2.84 GB
Хэш (hash) релиза: 70828bc4cab48e3d8b4a90bb9115d77a12a10887
Подписка на обновления:

Еще никто не оставлял запись к записи скачать торрент Приключения Дигимонов Три Digimon Adventure Tri . Будь первым!

!Обратная связь