Скачать через торрент Кайт - Девочка убийца Kite бесплатно Аниме Все серии на русском torrent

Если у вас наблюдаются проблемы со скриншотами, переходом по ссылками, скачиванием торрентов - проблемы в блокировщике рекламы AdBlock. #хорошегоДня!


Статистика раздачи
Размер:  1.51 GB   |    Зарегистрирован:  1 год 6 месяцев   |    .torrent скачан:  40 раз   |   
Раздают:  1  
   
Загрузка...
 
Автор Сообщение

Galfimbul

avatar Galfimbul


Кайт - Девочка убийца / Kite

Страна: Япония
Год выпуска: 1998 г.
Жанр: драма, боевик
Тип: OVA
Продолжительность: 1 эп., 47 мин.
Режиссер: Умэцу Ясуоми
Студия: ARMS

Описание: Несколько лет назад девочка Сава лишилась родителей. Её опекуном становится бескомпромиссный и циничный полицейский Акаи. Но у него есть на то свои корыстные цели: он воспитывает элиту наемных убийц, очищающих общество от мрази, перед которой закон и правосудие бессильны. Вскоре юная очаровательная Сава становится его невидимым и смертоносным оружием. Для неё нет невыполнимых заданий - мгновенно превращаясь из примерной школьницы в хладнокровного киллера, она начиняет разрывными пулями тела своих жертв, у которых нет ни шанса на выживание. Сава всегда работает одна, поэтому появление нового напарника, ловкого и бесстрашного Обури, резко меняет ее жизнь - внезапно у нее появляется друг и новые, неведомые чувства…

Качество: BDRip
Тип релиза: Без хардсаба
Формат видео: MKV
Релиз/Автор рипа: Kortec
Видео: x264 (8 bit), 960x720, 4100 kbps, 23.976 fps
Аудио: AC3, 448 kbps, 48000 Hz, 6 ch Язык Японский
Субтитры: ASS, внешние ; Перевод: Veacheslav420 aka Nomad Язык субтитров русский
Format : MatroskaFormat version : Version 1File size : 1.51 GiBDuration : 47mn 34sOverall bit rate : 4 541 KbpsEncoded date : UTC 2016-03-14 20:33:22Writing application : mkvmerge v2.1.0 ('Another Place To Fall') built on Aug 19 2007 13:40:07Writing library : libebml v0.7.7 + libmatroska v0.8.1

VideoID : 1Format : AVCFormat/Info : Advanced Video CodecFormat profile : High@L4.1Format settings, CABAC : YesFormat settings, ReFrames : 9 framesCodec ID : V_MPEG4/ISO/AVCDuration : 47mn 34sBit rate : 4 100 KbpsWidth : 960 pixelsHeight : 720 pixelsDisplay aspect ratio : 4:3Frame rate mode : ConstantFrame rate : 23.976 fpsColor space : YUVChroma subsampling : 4:2:0Bit depth : 8 bitsScan type : ProgressiveBits/(Pixel*Frame) : 0.247Stream size : 1.33 GiB (88%)Writing library : x264 core 130 r2273 b3065e6Encoding settings : cabac=1 / ref=9 / deblock=1:-2:-2 / analyse=0x3:0x133 / me=umh / subme=11 / psy=1 / psy_rd=1.00:0.10 / mixed_ref=1 / me_range=32 / chroma_me=1 / trellis=2 / 8x8dct=1 / cqm=0 / deadzone=21,11 / fast_pskip=0 / chroma_qp_offset=-3 / threads=6 / lookahead_threads=1 / sliced_threads=0 / nr=0 / decimate=0 / interlaced=0 / bluray_compat=0 / constrained_intra=0 / bframes=8 / b_pyramid=2 / b_adapt=2 / b_bias=0 / direct=3 / weightb=1 / open_gop=0 / weightp=2 / keyint=240 / keyint_min=23 / scenecut=40 / intra_refresh=0 / rc=2pass / mbtree=0 / bitrate=4100 / ratetol=1.0 / qcomp=0.60 / qpmin=0 / qpmax=69 / qpstep=4 / cplxblur=20.0 / qblur=0.5 / ip_ratio=1.40 / pb_ratio=1.30 / aq=1:0.80Language : EnglishDefault : YesForced : No

AudioID : 2Format : AC-3Format/Info : Audio Coding 3Mode extension : CM (complete main)Format settings, Endianness : BigCodec ID : A_AC3Duration : 47mn 34sBit rate mode : ConstantBit rate : 448 KbpsChannel(s) : 6 channelsChannel positions : Front: L C R, Side: L R, LFESampling rate : 48.0 KHzBit depth : 16 bitsCompression mode : LossyStream size : 152 MiB (10%)Language : JapaneseDefault : YesForced : No
Внимание!! В данной раздаче версия фильма с цензурой - вырезаны все места с хентаем )) В <a href="viewtopic.php?t=4718038" class="postLink">списке запрещенных</a> данной версии нет.

Трекер:  [ 14-Мар-2016 23:30 ]

  

Скачать .torrent

Размер .torrent файла 15 KB


Размер: 1.51 GB
Хэш (hash) релиза: 8dcb82e488b2582b285a41d3af3e4ab7ecbe2d96
Подписка на обновления:

Еще никто не оставлял запись к записи скачать торрент Кайт - Девочка убийца Kite . Будь первым!

!Обратная связь