Скачать через торрент Рандеву с жизнью бесплатно Аниме Все серии на русском torrent

Если у вас наблюдаются проблемы со скриншотами, переходом по ссылками, скачиванием торрентов - проблемы в блокировщике рекламы AdBlock. #хорошегоДня!


Статистика раздачи
Размер:  22.76 GB   |    Зарегистрирован:  1 год 8 месяцев   |    .torrent скачан:  31 раз   |   
Раздают:  1  
   
Загрузка...
 
Автор Сообщение

Galfimbul

avatar Galfimbul


Рандеву с жизнью (фильм) / Gekijouban Date A Live - Mayuri Judgement

Год выпуска: 2015
Страна: Япония
Жанр: приключения
Тип: Movie
Продолжительность: 73 мин.
Озвучка: нет
Русские субтитры: есть (отдельным файлом, формат .ass)
Перевод:
<ol class="post-ul">
Ararararagi, Alvakarp, Angara [Sovet Romantica]
</ol>
Хардсаб: Нет
Режиссер: Мотонага Кэйтаро
Студия: Production IMS

Описание: Для Ицуки Шидо вновь потекли спокойные деньки. Никаких битв, не надо никого спасать… Но всему хорошему приходит конец. Над городом появилась непонятная сфера, которую видит только он, а одновременно с ней - и таинственная девушка, которая явно за ним наблюдает… Но зачем?

Качество: Blu-Ray Remux
Формат: MKV
Видео кодек: AVC
Аудио кодек: FLAC (level 8), DTS
Видео: 1920x1080 (16:9) 23,976 fps ~36,7 Mbps 8bit
Аудио:
Jap 1 DTS, 48000Hz, ~1509 kbps 3ch
Jap 2 FLAC level8, 48000Hz, ~1360 kbps 2ch

Чаптеры присутствуют.
Общее
Уникальный идентификатор : 184199463337785830851563812968401477625 (0x8A9386B63CE8A5AF9E71676D6A801FF9)
Полное имя : M:\pub\Video\Anime\Date a Live!\Movie\[anti-raws]Gekijouban Date a Live - Mayuri Judgement[BDRemux].mkv
Формат : Matroska
Версия формата : Version 4 / Version 2
Размер файла : 20,4 Гбайт
Продолжительность : 1 ч. 12 м.
Режим общего битрейта : Переменный
Общий поток : 40,4 Мбит/сек
Дата кодирования : UTC 2016-03-12 18:51:25
Программа кодирования : mkvmerge v8.8.0 ('Wind at my back') 64bit
Библиотека кодирования : libebml v1.3.3 + libmatroska v1.4.4

Видео
Идентификатор : 3
Формат : AVC
Формат/Информация : Advanced Video Codec
Профиль формата : High@L4.1
Параметр CABAC формата : Да
Параметр ReFrames формата : 4 кадра
Идентификатор кодека : V_MPEG4/ISO/AVC
Продолжительность : 1 ч. 12 м.
Вид битрейта : Переменный
Битрейт : 37,5 Мбит/сек
Максимальный битрейт : 40,0 Мбит/сек
Ширина : 1920 пикселей
Высота : 1080 пикселей
Соотношение сторон : 16:9
Режим частоты кадров : Постоянный
Частота кадров : 23,976 (24000/1001) кадра/сек
Цветовое пространство : YUV
Субдискретизация насыщенности : 4:2:0
Битовая глубина : 8 бит
Тип развёртки : Прогрессивная
Бит/(Пиксели*Кадры) : 0.755
Размер потока : 19,0 Гбайт (93%)
Default : Нет
Forced : Нет
Цветовой диапазон : Limited
Основные цвета : BT.709
Характеристики трансфера : BT.709
Коэффициенты матрицы : BT.709

Аудио #1
Идентификатор : 1
Формат : DTS
Формат/Информация : Digital Theater Systems
Режим : 16
Параметр Endianness формата : Big
Идентификатор кодека : A_DTS
Продолжительность : 1 ч. 12 м.
Вид битрейта : Постоянный
Битрейт : 1509 Кбит/сек
Каналы : 3 канала
Расположение каналов : Front: L C R
Частота : 48,0 КГц
Частота кадров : 93,750 кадра/сек (512 spf)
Битовая глубина : 24 бит
Метод сжатия : С потерями
Размер потока : 781 Мбайт (4%)
Заголовок : DTS 2.1
Язык : Japanese
Default : Да
Forced : Нет

Аудио #2
Идентификатор : 2
Формат : FLAC
Формат/Информация : Free Lossless Audio Codec
Идентификатор кодека : A_FLAC
Продолжительность : 1 ч. 12 м.
Вид битрейта : Переменный
Битрейт : 1360 Кбит/сек
Каналы : 2 канала
Расположение каналов : Front: L R
Частота : 48,0 КГц
Частота кадров : 11,719 кадров/сек (4096 spf)
Битовая глубина : 24 бит
Размер потока : 704 Мбайт (3%)
Заголовок : FLAC 2.0
Библиотека кодирования : libFLAC 1.2.1 (UTC 2007-09-17)
Язык : Japanese
Default : Нет
Forced : Нет

Меню
00:00:00.000 : en:00:00:00.000
00:04:31.688 : en:00:04:31.688
00:15:09.784 : en:00:15:09.784
00:20:59.592 : en:00:20:59.592
00:27:00.202 : en:00:27:00.202
00:31:23.048 : en:00:31:23.048
00:35:29.461 : en:00:35:29.461
00:40:39.020 : en:00:40:39.020
00:46:09.058 : en:00:46:09.058
01:06:18.975 : en:01:06:18.975


Трекер:  [ 13-Мар-2016 13:30 ]

  

Скачать .torrent

Размер .torrent файла 36 KB


Размер: 22.76 GB
Хэш (hash) релиза: fb0efe6b64e862a6753f8b8492565e6dfcc7cfb5
Подписка на обновления:

Торренты, похожие на Рандеву с жизнью скачать торрент

Форум Название Автор Размер S L Добавлен
Аниме | Rips ·· Рандеву с жизнью 2 / Date a Live II [TV] [10 из 10] [Без хардсаба] [RUS(int), SUB] [2014 г., приключения, романтика, фантастика, мистика, BDRip] [720p] Galfimbul 49423771734.6 GB 0 0 1466345798

17:16

19-Июн-16

Аниме | HD Rips ·· Рандеву с жизнью 2 / Date A Live II / Date A Live: Encore [OVA] [1 из 1] [Без хардсаба] [JAP+SUB] [2014 г., приключения, романтика, фантастика, мистика, BDRip] [720p] Galfimbul 443847853423 MB 0 0 1466100422

21:07

16-Июн-16

Аниме | HD Rips ·· Рандеву с жизнью / Gekijouban Date A Live - Mayuri Judgement (Мотонага Кэйтаро) [Movie] [Без хардсаба] [RUS(ext), JAP+SUB] [2015 г., приключения, романтика, фантастика, мистика, BDRip] [1080p] Galfimbul 69808979266.5 GB 0 0 1465630931

10:42

11-Июн-16

Аниме | HD Rips ·· Рандеву с жизнью / Gekijouban Date A Live - Mayuri Judgement [Movie] [Без хардсаба] [JAP+SUB] [2015 г., приключения, романтика, фантастика, мистика, BDRip] [720p] Galfimbul 25598606872.38 GB 0 0 1459629139

23:32

2-Апр-16

Аниме | HD Rips ·· Рандеву с жизнью (фильм) / Gekijouban Date A Live - Mayuri Judgement [Movie] [Без хардсаба] [JAP, SUB] [2015 г., приключения, BDRip] [720p] Galfimbul 14340726231.34 GB 0 0 1459444145

20:09

31-Мар-16

Аниме | HD Rips ·· Рандеву с жизнью / Date a Live Director's Cut [TV] [12 из 12] [Без хардсаба] [JAP+SUB] [2015 г., приключения, романтика, фантастика, мистика, BDRip] [720p] Galfimbul 61634347125.74 GB 0 0 1449993215

10:53

13-Дек-15

Аниме | HD Rips ·· Рандеву с жизнью / Date a Live Director's Cut [TV] [12 из 12] [Без хардсаба] [JAP+SUB] [2015 г., приключения, романтика, фантастика, мистика, BDRip] [720p] Galfimbul 61634312585.74 GB 0 0 1449233832

15:57

4-Дек-15

Аниме | HD Rips ·· Рандеву с жизнью 2 / Date A Live: Encore (Мотонага Кэйтаро) [OVA] [1 из 1] [Без хардсаба] [JAP+SUB] [2014 г., приключения, романтика, фантастика, мистика, BDRemux] [1080p] Galfimbul 88217650968.22 GB 0 0 1447619268

23:27

15-Ноя-15

Аниме | HD Rips ·· Рандеву с жизнью 2 / Date a Live II [TV] [10 из 10] [Без хардсаба] [JAP+SUB] [2014 г., приключения, романтика, фантастика, мистика, BDRip] [720p] Galfimbul 47100410574.39 GB 0 0 1438031214

00:06

28-Июл-15

Аниме | HD Rips ·· Рандеву с жизнью (OVA-2) / Date A Live: Encore [OVA] [1 из 1] [Без хардсаба] [JAP, SUB] [2014 г., приключения, романтика, фантастика, BDRip] [720p] Galfimbul 238865851228 MB 0 0 1419340398

16:13

23-Дек-14

Аниме | Rips ·· Рандеву с жизнью OVA-2 / Date a Live: Encore / Date A Live II OVA [OVA] [1 из 1] [Без хардсаба] [RUS(ext), JAP+SUB] [2014 г., приключения, романтика, фантастика, мистика, BDRip] [1080p] Galfimbul 350682066334 MB 0 0 1419322820

11:20

23-Дек-14

Аниме | Rips ·· Рандеву с жизнью OVA-2 / Date a Live: Encore / Date A Live II OVA [OVA] [1 из 1] [Без хардсаба] [JAP, RUS(ext)] [2014 г., приключения, романтика, фантастика, мистика, BDRip] [1080p] Galfimbul 350635069334 MB 0 0 1419246766

14:12

22-Дек-14

Аниме | HD Rips ·· Рандеву с жизнью 2 / Date A Live 2 [OVA] [1 из 1] [Без хардсаба] [JAP,ENG+SUB] [2014 г., приключения, романтика, фантастика, мистика, BDRip] [1080p] Galfimbul 1042935613995 MB 0 0 1419176696

18:44

21-Дек-14

Аниме | HD Rips ·· Рандеву с жизнью / Date A Live II (Мотонага Кэйтаро) [TV] [10 из 10] [Без хардсаба] [JAP+SUB] [2014 г., приключения, HDTVRip] [720p] Galfimbul 33517398953.12 GB 0 0 1400796211

01:03

23-Май-14

Аниме | HD Rips ·· Рандеву с жизнью / Date a Live (Мотонага Кэйтаро) [TV] [12 из 12] [без хардсаба] [JAP+SUB] [2013 г., комедия, романтика, мистика, этти, BDRip] [1080p] Polarnik 2185334468120.35 GB 0 0 1392983480

14:51

21-Фев-14

Аниме | Blu-Ray и BDRemux ·· Рандеву с жизнью / Date a Live (Мотонага Кэйтаро) [TV] [12 из 12] [без хардсаба] [JAP+SUB] [2013 г., комедия, романтика, мистика, этти, BDRemux] [1080p] Polarnik 8413947625778.36 GB 0 0 1392983415

14:50

21-Фев-14

Аниме | Blu-Ray и BDRemux ·· Рандеву с жизнью OVA / Date a Live OVA (Мотонага Кэйтаро) [OVA] [1 из 1] [без хардсаба] [JAP+SUB] [2013 г., приключения, BDRemux] [1080p] Polarnik 71601519286.67 GB 0 0 1392908472

18:01

20-Фев-14

Аниме | HD Rips ·· Рандеву с жизнью / Date a Live (Мотонага Кэйтаро) [TV] [1 из 12] [без хардсаба] [JAP+SUB] [2013 г., приключения, фантастика, мистика, романтика, комедия, BDRip] [720p] Polarnik 11353251801.06 GB 0 0 1378262186

05:36

4-Сен-13

Аниме | HD Rips ·· Рандеву с жизнью / Date a Live (Мотонага Кэйтаро) [TV] [12 из 12] [без хардсаба] [JAP+SUB] [2013 г., приключения, фантастика, мистика, романтика, комедия, HDTVRip] [720p] Polarnik 55468949725.17 GB 0 0 1373806280

15:51

14-Июл-13

Еще никто не оставлял запись к записи скачать торрент Рандеву с жизнью . Будь первым!

!Обратная связь