Скачать через торрент Кластер Эдж Cluster Edge бесплатно Аниме Все серии на русском torrent

Если у вас наблюдаются проблемы со скриншотами, переходом по ссылками, скачиванием торрентов - проблемы в блокировщике рекламы AdBlock. #хорошегоДня!


Статистика раздачи
Размер:  11.52 GB   |    Зарегистрирован:  1 год 7 месяцев   |    .torrent скачан:  46 раз   |   
Раздают:  1  
   
Загрузка...
 
Автор Сообщение

Galfimbul

avatar Galfimbul


Кластер Эдж / Cluster Edge

Страна: Япония
Год выпуска: 2005 г.
Жанр: приключения, фантастика
Тип: TV
Продолжительность: 25 эп, ~25 мин. серия
Режиссер: Икэда Масаси

Описание: Все начинается с того, что две страны после 6 месяцев войны наконец пришли к мирному соглашению...
В элитную военную академию набирают новых кадетов, и один из них – юноша по имени Агат. Герой сильно отличается от благовоспитанных отпрысков богатых семей, которыми наполнена эта академия: он ведет себя просто, говорит безыскусно, но в то же время блестяще справляется с любым механизмом и не любит несправедливости.

Доп. информация:
Диск 1 (серии 1-2): Японское издание. Текст читает Евгения Лурье по заказу фирмы Сузаку в 2005 году.
Диск 2: Утерян у продавца.
Диск 3-4 (серии 5-12): Качество TV-Rip. Перевод с английского и озвучивание - Дмитрий Толмачев по заказу компании Animegroup в 2006 году.
Дальше это аниме не переводилось.

Качество: DVD5
Формат экрана: 4:3
Система / Разрешение: NTSC (720x480)
Средний битрейт: 8 733 Kbps
Аудио: AC-3, 192 Kbps, 2 channels Язык Японский
Аудио 2: AC-3, 192 Kbps, 2 channels Язык Русский
Язык субтитров: русский
GeneralComplete name : D:\Films\Cluster Edge\1\VIDEO_TS\VTS_01_1.VOBFormat : MPEG-PSFile size : 1 024 MiBDuration : 15mn 23sOverall bit rate mode : VariableOverall bit rate : 9 302 Kbps

VideoID : 224 (0xE0)Format : MPEG VideoFormat version : Version 2Format profile : Main@MainFormat settings, BVOP : YesFormat settings, Matrix : CustomFormat settings, GOP : VariableFormat settings, picture st : FrameDuration : 15mn 23sBit rate mode : VariableBit rate : 8 733 KbpsMaximum bit rate : 9 800 KbpsWidth : 720 pixelsHeight : 480 pixelsDisplay aspect ratio : 4:3Frame rate : 29.970 fpsStandard : NTSCColor space : YUVChroma subsampling : 4:2:0Bit depth : 8 bitsScan type : InterlacedScan order : Top Field FirstCompression mode : LossyBits/(Pixel*Frame) : 0.843Time code of first frame : 00:00:00:00Time code source : Group of pictures headerStream size : 961 MiB (94%)

Audio #1ID : 189 (0xBD)-128 (0x80)Format : AC-3Format/Info : Audio Coding 3Mode extension : CM (complete main)Format settings, Endianness : BigMuxing mode : DVD-VideoDuration : 15mn 23sBit rate mode : ConstantBit rate : 192 KbpsChannel(s) : 2 channelsChannel positions : Front: L RSampling rate : 48.0 KHzCompression mode : LossyStream size : 21.1 MiB (2%)

Audio #2ID : 189 (0xBD)-129 (0x81)Format : AC-3Format/Info : Audio Coding 3Mode extension : CM (complete main)Format settings, Endianness : BigMuxing mode : DVD-VideoDuration : 15mn 23sBit rate mode : ConstantBit rate : 192 KbpsChannel(s) : 2 channelsChannel positions : Front: L RSampling rate : 48.0 KHzCompression mode : LossyStream size : 21.1 MiB (2%)

Menu
Диск Сузаку:


Диски Animegroup:


Трекер:  [ 11-Мар-2016 20:30 ]

  

Скачать .torrent

Размер .torrent файла 32 KB


Размер: 11.52 GB
Хэш (hash) релиза: 39cce78586bd088ea296fac802a57280bdcda57d
Подписка на обновления:

Еще никто не оставлял запись к записи скачать торрент Кластер Эдж Cluster Edge . Будь первым!

!Обратная связь