Скачать через торрент музыку Шпион, встань Espion, leve-toi бесплатно без регистрации torrent

Если у вас наблюдаются проблемы со скриншотами, переходом по ссылками, скачиванием торрентов - проблемы в блокировщике рекламы AdBlock. #хорошегоДня!


Статистика раздачи
Размер:  251 MB   |    Зарегистрирован:  1 год 6 месяцев   |    .torrent скачан:  14 раз   |   
Раздают:  1  
   
Загрузка...
 
Автор Сообщение

Galfimbul

avatar Galfimbul


Шпион, встань / Espion, lève-toi
Жанр: Score
Композитор: Ennio Morricone
Год выпуска диска: 2016
Год выпуска фильма: 1982
Производитель диска: France
Издатель (лейбл): Music Box Records
Номер по каталогу: MBR-084
Аудиокодек: FLAC (*.flac)
Тип рипа: tracks+.cue
Битрейт аудио: lossless
Продолжительность: 00:44:26
Источник: собственный рип
Наличие сканов в содержимом раздачи: да, 600 dpi
Ссылки: Кинопоиск | IMDB | <a href="https://en.wikipedia.org/wiki/Espion,_l%C3%A8ve-toi" class="postLink">Wikipedia</a> | SoundtrackCollector
MP3: [url=...5185188](Score) Шпион, встань / Espion, leve-toi (by Ennio Morricone) - 2016 (1982), MP3 (tracks) 320 kbps[/url]
Ennio Morricone: [url=...786&nm=Ennio+Morricone]lossless[/url] | [url=...785&nm=Ennio+Morricone]lossy[/url]
01. Marche en la [0:03:02.68]
02. Espion, lève-toi (interlude) [0:03:44.24]
03. Bugle pour Anna (la rencontre) [0:02:23.58]
04. Téléphone sans réponse [0:01:22.48]
05. Mélodie pour Anna (version album) [0:02:45.21]
06. Espion, lève-toi (final) [0:03:47.72]
07. Secret nocturne [0:01:08.45]
08. Enlèvement et homicide [0:01:16.35]
09. Espion, lève-toi [0:01:06.57]
10. Marche en la [0:01:27.70]
11. Espion, lève-toi [0:04:25.14]
12. Mélodie pour Anna (version film) [0:02:43.37]
13. Espion, lève-toi [0:01:35.68]
14. Marche en la [0:02:24.53]
15. Mélodie pour Anna (version courte) [0:00:59.39]
16. Espion, lève-toi (tension) [0:00:36.38]
17. Marche en la [0:00:54.74]
18. Espion, lève-toi [0:01:27.73]
19. Marche en la (version film) [0:02:49.42]
20. Usted Del Fuego / Canción del Fuego [0:04:20.04]
Exact Audio Copy V1.1 from 23. June 2015

EAC extraction logfile from 7. March 2016, 19:49

Ennio Morricone / Espion, lève-toi

Used drive : PLEXTOR CD-R PX-230A Adapter: 1 ID: 2

Read mode : SecureUtilize accurate stream : YesDefeat audio cache : YesMake use of C2 pointers : No

Read offset correction : 738Overread into Lead-In and Lead-Out : NoFill up missing offset samples with silence : YesDelete leading and trailing silent blocks : NoNull samples used in CRC calculations : YesUsed interface : Native Win32 interface for Win NT & 2000Gap handling : Appended to previous track

Used output format : User Defined EncoderSelected bitrate : 1024 kBit/sQuality : HighAdd ID3 tag : NoCommand line compressor : C:\Program Files (x86)\Exact Audio Copy\FLAC\FLAC.EXEAdditional command line options : -6 -V -T "ARTIST=%artist%" -T "TITLE=%title%" -T "ALBUM=%albumtitle%" -T "DATE=%year%"-T "TRACKNUMBER=%tracknr%" -T "GENRE=%genre%" -T "COMMENT=%comment%" -T "ALBUMARTIST=%albuminterpret%" -T "COMPOSER=%composer%"-T "DISCNUMBER=%cdnumber%" -T "TOTALDISCS=%totalcds%" -T "TOTALTRACKS=%numtracks%" %source% -o %dest%

TOC of the extracted CD

Track | Start | Length | Start sector | End sector --------------------------------------------------------- 1 | 0:00.00 | 3:02.68 | 0 | 13717 2 | 3:02.68 | 3:44.24 | 13718 | 30541 3 | 6:47.17 | 2:23.58 | 30542 | 41324 4 | 9:11.00 | 1:22.48 | 41325 | 47522 5 | 10:33.48 | 2:45.21 | 47523 | 59918 6 | 13:18.69 | 3:47.72 | 59919 | 77015 7 | 17:06.66 | 1:08.45 | 77016 | 82160 8 | 18:15.36 | 1:16.35 | 82161 | 87895 9 | 19:31.71 | 1:06.57 | 87896 | 92902 10 | 20:38.53 | 1:27.70 | 92903 | 99497 11 | 22:06.48 | 4:25.14 | 99498 | 119386 12 | 26:31.62 | 2:43.37 | 119387 | 131648 13 | 29:15.24 | 1:35.68 | 131649 | 138841 14 | 30:51.17 | 2:24.53 | 138842 | 149694 15 | 33:15.70 | 0:59.39 | 149695 | 154158 16 | 34:15.34 | 0:36.38 | 154159 | 156896 17 | 34:51.72 | 0:54.74 | 156897 | 161020 18 | 35:46.71 | 1:27.73 | 161021 | 167618 19 | 37:14.69 | 2:49.42 | 167619 | 180335 20 | 40:04.36 | 4:20.04 | 180336 | 199839

Track 1

Filename C:\Music\01 - Ennio Morricone - Marche en la.wav

Pre-gap length 0:00:02.00

Peak level 98.4 % Extraction speed 5.7 X Track quality 99.9 % Test CRC 2ED46453 Copy CRC 2ED46453 Track not present in AccurateRip database Copy OK

Track 2

Filename C:\Music\02 - Ennio Morricone - Espion, lève-toi (interlude).wav

Pre-gap length 0:00:02.00

Peak level 91.7 % Extraction speed 7.4 X Track quality 100.0 % Test CRC B364CD6F Copy CRC B364CD6F Track not present in AccurateRip database Copy OK

Track 3

Filename C:\Music\03 - Ennio Morricone - Bugle pour Anna (la rencontre).wav

Pre-gap length 0:00:02.00

Peak level 85.8 % Extraction speed 5.6 X Track quality 99.9 % Test CRC 3546B38D Copy CRC 3546B38D Track not present in AccurateRip database Copy OK

Track 4

Filename C:\Music\04 - Ennio Morricone - Téléphone sans réponse.wav

Pre-gap length 0:00:02.00

Peak level 70.1 % Extraction speed 4.9 X Track quality 99.8 % Test CRC A17914DA Copy CRC A17914DA Track not present in AccurateRip database Copy OK

Track 5

Filename C:\Music\05 - Ennio Morricone - Mélodie pour Anna (version album).wav

Pre-gap length 0:00:02.00

Peak level 100.0 % Extraction speed 8.1 X Track quality 100.0 % Test CRC B040CB57 Copy CRC B040CB57 Track not present in AccurateRip database Copy OK

Track 6

Filename C:\Music\06 - Ennio Morricone - Espion, lève-toi (final).wav

Pre-gap length 0:00:02.00

Peak level 94.7 % Extraction speed 8.5 X Track quality 100.0 % Test CRC 2516E78A Copy CRC 2516E78A Track not present in AccurateRip database Copy OK

Track 7

Filename C:\Music\07 - Ennio Morricone - Secret nocturne.wav

Pre-gap length 0:00:02.00

Peak level 65.5 % Extraction speed 6.9 X Track quality 100.0 % Test CRC B7A4080E Copy CRC B7A4080E Track not present in AccurateRip database Copy OK

Track 8

Filename C:\Music\08 - Ennio Morricone - Enlèvement et homicide.wav

Pre-gap length 0:00:02.00

Peak level 100.0 % Extraction speed 7.5 X Track quality 100.0 % Test CRC F569F552 Copy CRC F569F552 Track not present in AccurateRip database Copy OK

Track 9

Filename C:\Music\09 - Ennio Morricone - Espion, lève-toi.wav

Pre-gap length 0:00:02.00

Peak level 81.5 % Extraction speed 4.8 X Track quality 99.8 % Test CRC A491F561 Copy CRC A491F561 Track not present in AccurateRip database Copy OK

Track 10

Filename C:\Music\10 - Ennio Morricone - Marche en la.wav

Pre-gap length 0:00:02.00

Peak level 100.0 % Extraction speed 5.6 X Track quality 99.8 % Test CRC B5C6CAB1 Copy CRC B5C6CAB1 Track not present in AccurateRip database Copy OK

Track 11

Filename C:\Music\11 - Ennio Morricone - Espion, lève-toi.wav

Pre-gap length 0:00:02.00

Peak level 86.5 % Extraction speed 9.3 X Track quality 100.0 % Test CRC B7124F10 Copy CRC B7124F10 Track not present in AccurateRip database Copy OK

Track 12

Filename C:\Music\12 - Ennio Morricone - Mélodie pour Anna (version film).wav

Pre-gap length 0:00:02.00

Peak level 100.0 % Extraction speed 8.7 X Track quality 100.0 % Test CRC 9A72EC4A Copy CRC 9A72EC4A Track not present in AccurateRip database Copy OK

Track 13

Filename C:\Music\13 - Ennio Morricone - Espion, lève-toi.wav

Pre-gap length 0:00:02.00

Peak level 74.8 % Extraction speed 6.2 X Track quality 99.8 % Test CRC 906A3DBB Copy CRC 906A3DBB Track not present in AccurateRip database Copy OK

Track 14

Filename C:\Music\14 - Ennio Morricone - Marche en la.wav

Pre-gap length 0:00:02.00

Peak level 100.0 % Extraction speed 9.1 X Track quality 100.0 % Test CRC 3E515561 Copy CRC 3E515561 Track not present in AccurateRip database Copy OK

Track 15

Filename C:\Music\15 - Ennio Morricone - Mélodie pour Anna (version courte).wav

Pre-gap length 0:00:02.00

Peak level 70.1 % Extraction speed 7.4 X Track quality 100.0 % Test CRC E3A34318 Copy CRC E3A34318 Track not present in AccurateRip database Copy OK

Track 16

Filename C:\Music\16 - Ennio Morricone - Espion, lève-toi (tension).wav

Pre-gap length 0:00:02.00

Peak level 65.8 % Extraction speed 3.6 X Track quality 99.7 % Test CRC AB77C650 Copy CRC AB77C650 Track not present in AccurateRip database Copy OK

Track 17

Filename C:\Music\17 - Ennio Morricone - Marche en la.wav

Pre-gap length 0:00:02.00

Peak level 100.0 % Extraction speed 6.8 X Track quality 100.0 % Test CRC 34D56AC0 Copy CRC 34D56AC0 Track not present in AccurateRip database Copy OK

Track 18

Filename C:\Music\18 - Ennio Morricone - Espion, lève-toi.wav

Pre-gap length 0:00:02.00

Peak level 89.1 % Extraction speed 5.7 X Track quality 99.8 % Test CRC 8ED76408 Copy CRC 8ED76408 Track not present in AccurateRip database Copy OK

Track 19

Filename C:\Music\19 - Ennio Morricone - Marche en la (version film).wav

Pre-gap length 0:00:02.00

Peak level 97.1 % Extraction speed 8.6 X Track quality 100.0 % Test CRC FA134C52 Copy CRC FA134C52 Track not present in AccurateRip database Copy OK

Track 20

Filename C:\Music\20 - Usted Del Fuego - Canción del Fuego.wav

Pre-gap length 0:00:04.00

Peak level 95.9 % Extraction speed 9.2 X Track quality 100.0 % Test CRC 5CB091FB Copy CRC 5CB091FB Track not present in AccurateRip database Copy OK

None of the tracks are present in the AccurateRip database

No errors occurred

End of status report

---- CUETools DB Plugin V2.1.6

[CTDB TOCID: 4aB8GZuW6tXjb1sNZ.15RxIS1TI-] foundSubmit result: 4aB8GZuW6tXjb1sNZ.15RxIS1TI- has been confirmedTrack | CTDB Status 1 | (1/1) Accurately ripped 2 | (1/1) Accurately ripped 3 | (1/1) Accurately ripped 4 | (1/1) Accurately ripped 5 | (1/1) Accurately ripped 6 | (1/1) Accurately ripped 7 | (1/1) Accurately ripped 8 | (1/1) Accurately ripped 9 | (1/1) Accurately ripped 10 | (1/1) Accurately ripped 11 | (1/1) Accurately ripped 12 | (1/1) Accurately ripped 13 | (1/1) Accurately ripped 14 | (1/1) Accurately ripped 15 | (1/1) Accurately ripped 16 | (1/1) Accurately ripped 17 | (1/1) Accurately ripped 18 | (1/1) Accurately ripped 19 | (1/1) Accurately ripped 20 | (1/1) Accurately ripped

==== Log checksum 90884DD4147E62F4080C4782A5D13D656AE022421009AE0DB263936CC1007E4C ====
REM GENRE SoundtrackREM DATE 1982REM DISCID 120A6814REM COMMENT "ExactAudioCopy v1.1"PERFORMER "Ennio Morricone"TITLE "Espion, leve-toi"FILE "01 - Ennio Morricone - Marche en la.wav" WAVE TRACK 01 AUDIO TITLE "Marche en la" PERFORMER "Ennio Morricone" FLAGS DCP INDEX 01 00:00:00 TRACK 02 AUDIO TITLE "Espion, leve-toi (interlude)" PERFORMER "Ennio Morricone" FLAGS DCP INDEX 00 03:00:68FILE "02 - Ennio Morricone - Espion, leve-toi (interlude).wav" WAVE INDEX 01 00:00:00 TRACK 03 AUDIO TITLE "Bugle pour Anna (la rencontre)" PERFORMER "Ennio Morricone" FLAGS DCP INDEX 00 03:42:24FILE "03 - Ennio Morricone - Bugle pour Anna (la rencontre).wav" WAVE INDEX 01 00:00:00 TRACK 04 AUDIO TITLE "Telephone sans reponse" PERFORMER "Ennio Morricone" FLAGS DCP INDEX 00 02:21:58FILE "04 - Ennio Morricone - Telephone sans reponse.wav" WAVE INDEX 01 00:00:00 TRACK 05 AUDIO TITLE "Melodie pour Anna (version album)" PERFORMER "Ennio Morricone" FLAGS DCP INDEX 00 01:20:48FILE "05 - Ennio Morricone - Melodie pour Anna (version album).wav" WAVE INDEX 01 00:00:00 TRACK 06 AUDIO TITLE "Espion, leve-toi (final)" PERFORMER "Ennio Morricone" FLAGS DCP INDEX 00 02:43:21FILE "06 - Ennio Morricone - Espion, leve-toi (final).wav" WAVE INDEX 01 00:00:00 TRACK 07 AUDIO TITLE "Secret nocturne" PERFORMER "Ennio Morricone" FLAGS DCP INDEX 00 03:45:72FILE "07 - Ennio Morricone - Secret nocturne.wav" WAVE INDEX 01 00:00:00 TRACK 08 AUDIO TITLE "Enlevement et homicide" PERFORMER "Ennio Morricone" FLAGS DCP INDEX 00 01:06:45FILE "08 - Ennio Morricone - Enlevement et homicide.wav" WAVE INDEX 01 00:00:00 TRACK 09 AUDIO TITLE "Espion, leve-toi" PERFORMER "Ennio Morricone" FLAGS DCP INDEX 00 01:14:35FILE "09 - Ennio Morricone - Espion, leve-toi.wav" WAVE INDEX 01 00:00:00 TRACK 10 AUDIO TITLE "Marche en la" PERFORMER "Ennio Morricone" FLAGS DCP INDEX 00 01:04:57FILE "10 - Ennio Morricone - Marche en la.wav" WAVE INDEX 01 00:00:00 TRACK 11 AUDIO TITLE "Espion, leve-toi" PERFORMER "Ennio Morricone" FLAGS DCP INDEX 00 01:25:70FILE "11 - Ennio Morricone - Espion, leve-toi.wav" WAVE INDEX 01 00:00:00 TRACK 12 AUDIO TITLE "Melodie pour Anna (version film)" PERFORMER "Ennio Morricone" FLAGS DCP INDEX 00 04:23:14FILE "12 - Ennio Morricone - Melodie pour Anna (version film).wav" WAVE INDEX 01 00:00:00 TRACK 13 AUDIO TITLE "Espion, leve-toi" PERFORMER "Ennio Morricone" FLAGS DCP INDEX 00 02:41:37FILE "13 - Ennio Morricone - Espion, leve-toi.wav" WAVE INDEX 01 00:00:00 TRACK 14 AUDIO TITLE "Marche en la" PERFORMER "Ennio Morricone" FLAGS DCP INDEX 00 01:33:68FILE "14 - Ennio Morricone - Marche en la.wav" WAVE INDEX 01 00:00:00 TRACK 15 AUDIO TITLE "Melodie pour Anna (version courte)" PERFORMER "Ennio Morricone" FLAGS DCP INDEX 00 02:22:53FILE "15 - Ennio Morricone - Melodie pour Anna (version courte).wav" WAVE INDEX 01 00:00:00 TRACK 16 AUDIO TITLE "Espion, leve-toi (tension)" PERFORMER "Ennio Morricone" FLAGS DCP INDEX 00 00:57:39FILE "16 - Ennio Morricone - Espion, leve-toi (tension).wav" WAVE INDEX 01 00:00:00 TRACK 17 AUDIO TITLE "Marche en la" PERFORMER "Ennio Morricone" FLAGS DCP INDEX 00 00:34:38FILE "17 - Ennio Morricone - Marche en la.wav" WAVE INDEX 01 00:00:00 TRACK 18 AUDIO TITLE "Espion, leve-toi" PERFORMER "Ennio Morricone" FLAGS DCP INDEX 00 00:52:74FILE "18 - Ennio Morricone - Espion, leve-toi.wav" WAVE INDEX 01 00:00:00 TRACK 19 AUDIO TITLE "Marche en la (version film)" PERFORMER "Ennio Morricone" FLAGS DCP INDEX 00 01:25:73FILE "19 - Ennio Morricone - Marche en la (version film).wav" WAVE INDEX 01 00:00:00 TRACK 20 AUDIO TITLE "Cancion del Fuego" PERFORMER "Usted Del Fuego" FLAGS DCP INDEX 00 02:45:42FILE "20 - Usted Del Fuego - Cancion del Fuego.wav" WAVE INDEX 01 00:00:00


Трекер:  [ 08-Мар-2016 08:30 ]

  

Скачать .torrent

Размер .torrent файла 12 KB


Размер: 251 MB
Хэш (hash) релиза: e5e520c6135896eb11f753bf80185e79f0adbb2a

Торренты, похожие на Шпион, встань Espion, leve-toi скачать торрент

Форум Название Автор Размер S L Добавлен
Саундтреки к фильмам и мультфильмам (mp3) ·· (Score) Шпион, встань / Espion, leve-toi (by Ennio Morricone) - 2016 (1982), MP3 (tracks) 320 kbps Galfimbul 136710185130 MB 0 0 1457419702

09:48

8-Мар-16

Еще никто не оставлял запись к записи скачать торрент Шпион, встань Espion, leve-toi . Будь первым!

!Обратная связь