Ponyo on the Cliff by the Sea torrent

, , - AdBlock. #!


60.7 GB   |    :  1 9    |    .torrent :  29    |   
1  
   
...
 

Galfimbul

avatar Galfimbul


[url=...5117796/] [/url][url=...4722800] [/url][url=...4612785] [/url][url=...4629918] [/url][url=...3690943] [/url][url=...4766434] [/url][url=...4651642] [/url][url=...4901371] [/url][url=...4178733] [/url][url=...4936128/] [/url][url=...4978082] [/url][url=...4851914] [/url][url=...4119317] [/url][url=...5043266] [/url][url=...5006347] [/url][url=...3875703] [/url][url=...4465304] [/url][url=...5180830] [/url][url=...5071976/] [/url][url=...5135718/] [/url][url=...4989310] [/url][url=...4979621] [/url] / Gake no Ue no Ponyo / 崖の上のポニョ / Ponyo on the Cliff by the Sea
:
: 2008 .
: , ,
: Movie
: 103 .
: Hayao Miyazaki
: Ghibli

: Blu-ray
:
: M2TS
: MPEG-4 AVC Video / 1920x1080 / 33231 kbps / 23,976 fps / 16:9 / High Profile 4.1
1: LPCM Audio 2.0 / 48 kHz / 2304 kbps / 24-bit
2: DTS-HD Master Audio / 6.1 / 48 kHz / 4537 kbps / 24-bit (DTS Core: 6.1-ES / 48 kHz / 1509 kbps / 24-bit)
3: Dolby Digital Audio / 5.1 / 48 kHz / 384 kbps
4: [Ruscico ()] Dolby Digital Audio / 5.1 / 48 kHz / 448 kbps
5: [ ()] DTS-ES Audio / 6.1-ES / 48 kHz / 768 kbps / 16-bit
6: [BBC Spb (, )] Dolby Digital Audio / 5.1 / 48 kHz / 448 kbps
7: [. (, )] Dolby Digital Audio / 5.1 / 48 kHz / 448 kbps
1: ,
2: ,
3: , [ Ruscico, BurniN∙SnikerS]
4: , []
5: , [toph]
6: , [Grohotun]:
, , . . . . , , , .

. :
, , "[url=...4651642] [/url]", . "".
, , , "Chicken Ramen" "Nissin Foods".
, , .
25 , [url=...3692012] ""[/url]. .
( ), -, .
: "" . , 1:
<ol class="post-ul">
,
""
"" ( )
</ol>
, 2:
<ol class="post-ul">
, ""
-
"" [ The Scenery of Ghibli (Jiburi no Fuukei) ""]
: , , ,


( TFloater, BurniN∙SnikerS).
</ol>


:
TFloater, , umi_no_inu Miyazaki_ru, Lizing48, FujiSan, amd1100t, E320 Sportline, yakudza01
1 MGVC- " " " ". , .. . AC3 Sonic Foundry Soft Encode ( Dolby Digital 2.0 256kbps).
" " "" The Scenery of Ghibli (Jiburi no Fuukei).
" ", " ", " " " " .
.
, , .. " " , "" ( ) , " " DVD.

Sonic Scenarist 5.7.2. Sony PS3, PowerDVD 12, TMT5 Toshiba BDX1200.
Disc Title: Gake no Ue no Ponyo Disc 1Disc Size: 44 712 555 868 bytesProtection: AACSBD-Java: NoBDInfo: 0.5.8

Notes:

BDINFO HOME: Cinema Squid http://www.cinemasquid.com/blu-ray/tools/bdinfo

INCLUDES FORUMS REPORT FOR: AVS Forum Blu-ray Audio and Video Specifications Thread http://www.avsforum.com/avs-vb/showthread.php?t=1155731

********************PLAYLIST: 00000.MPLS********************

<--- BEGIN FORUMS PASTE --->

Total Video
Title Codec Length Movie Size Disc Size Bitrate Bitrate Main Audio Track Secondary Audio Track
----- ------ ------- -------------- -------------- ------- ------- ------------------ ---------------------
00000.MPLS AVC 1:40:50 34061144064 44712555868 45.04 33.23 LPCM 2.0 2304Kbps (48kHz/24-bit) DTS-HD Master 6.1 4537Kbps (48kHz/24-bit)
DISC INFO:

Disc Title: Gake no Ue no Ponyo Disc 1
Disc Size: 44712555868 bytes
Protection: AACS
BD-Java: No
BDInfo: 0.5.8

PLAYLIST REPORT:

Name: 00000.MPLS
Length: 1:40:50.002 (h:m:s.ms)
Size: 34061144064 bytes
Total Bitrate: 45.04 Mbps

VIDEO:

Codec Bitrate Description
----- ------- -----------
MPEG-4 AVC Video 33231 kbps 1080p / 23.976 fps / 16:9 / High Profile 4.1

AUDIO:

Codec Language Bitrate Description
----- -------- ------- -----------
LPCM Audio Japanese 2304 kbps 2.0 / 48 kHz / 2304 kbps / 24-bit
DTS-HD Master Audio Japanese 4537 kbps 6.1 / 48 kHz / 4537 kbps / 24-bit (DTS Core: 6.1-ES / 48 kHz / 1509 kbps / 24-bit)
Dolby Digital Audio English 384 kbps 5.1 / 48 kHz / 384 kbps / DN -4dB
Dolby Digital Audio Russian 448 kbps 5.1 / 48 kHz / 448 kbps / DN -4dB
DTS-ES Audio Russian 768 kbps 6.1-ES / 48 kHz / 768 kbps / 16-bit
Dolby Digital Audio Russian 448 kbps 5.1 / 48 kHz / 448 kbps / DN -4dB
Dolby Digital Audio Russian 448 kbps 5.1 / 48 kHz / 448 kbps / DN -4dB

SUBTITLES:

Codec Language Bitrate Description
----- -------- ------- -----------
Presentation Graphics Japanese 18.650 kbps
Presentation Graphics English 20.138 kbps
Presentation Graphics Russian 31.986 kbps
Presentation Graphics Russian 12.136 kbps
Presentation Graphics Russian 14.248 kbps
Presentation Graphics Russian 12.017 kbps

FILES:

Name Time In Length Size Total Bitrate
---- ------- ------ ---- -------------
00000.M2TS 0:00:00.000 0:00:12.178 60198912 39543
00002.M2TS 0:00:12.178 0:04:22.804 1511884800 46023
00003.M2TS 0:04:34.983 0:02:18.346 818049024 47304
00005.M2TS 0:06:53.329 0:20:14.254 6796197888 44776
00006.M2TS 0:27:07.584 0:02:25.436 777056256 42743
00008.M2TS 0:29:33.021 1:09:36.881 23522027520 45052
00009.M2TS 1:39:09.902 0:01:40.100 575729664 46012

CHAPTERS:

Number Time In Length Avg Video Rate Max 1-Sec Rate Max 1-Sec Time Max 5-Sec Rate Max 5-Sec Time Max 10Sec Rate Max 10Sec Time Avg Frame Size Max Frame Size Max Frame Time
------ ------- ------ -------------- -------------- -------------- -------------- -------------- -------------- -------------- -------------- -------------- --------------
1 0:00:00.000 0:04:34.983 33940 kbps 59120 kbps 00:00:13.221 40708 kbps 00:01:06.566 38155 kbps 00:00:41.458 176919 bytes 860684 bytes 00:01:30.840
2 0:04:34.983 0:05:23.322 33215 kbps 59791 kbps 00:04:36.109 41025 kbps 00:05:42.967 38288 kbps 00:05:37.962 173167 bytes 925792 bytes 00:08:08.321
3 0:09:58.306 0:06:15.792 34001 kbps 51232 kbps 00:13:59.505 40355 kbps 00:13:30.684 37777 kbps 00:12:11.897 177266 bytes 952992 bytes 00:14:42.006
4 0:16:14.098 0:04:47.996 32720 kbps 46810 kbps 00:20:42.741 38585 kbps 00:19:39.136 36639 kbps 00:20:41.239 170587 bytes 947044 bytes 00:17:35.387
5 0:21:02.094 0:06:05.490 32775 kbps 51660 kbps 00:22:31.850 39844 kbps 00:24:44.566 37270 kbps 00:22:41.693 170876 bytes 947223 bytes 00:24:05.360
6 0:27:07.584 0:08:13.784 31911 kbps 58569 kbps 00:29:09.831 40345 kbps 00:30:50.974 37390 kbps 00:31:20.628 166370 bytes 964680 bytes 00:29:12.292
7 0:35:21.369 0:06:00.401 33976 kbps 53409 kbps 00:38:31.517 40466 kbps 00:39:40.419 37753 kbps 00:39:35.998 177135 bytes 890415 bytes 00:35:36.342
8 0:41:21.770 0:07:12.431 34320 kbps 57455 kbps 00:41:56.847 40509 kbps 00:45:27.224 38120 kbps 00:45:22.177 178927 bytes 892050 bytes 00:42:07.483
9 0:48:34.202 0:06:47.448 32274 kbps 56245 kbps 00:50:49.588 39843 kbps 00:49:58.912 37245 kbps 00:50:07.754 168264 bytes 864662 bytes 00:53:07.309
10 0:55:21.651 0:06:39.023 30980 kbps 57128 kbps 01:01:10.875 39698 kbps 00:57:23.481 36183 kbps 00:57:18.643 161515 bytes 925944 bytes 00:57:25.567
11 1:02:00.675 0:06:52.495 33798 kbps 54860 kbps 01:03:54.121 40263 kbps 01:03:22.673 37551 kbps 01:06:32.947 176209 bytes 861279 bytes 01:06:33.030
12 1:08:53.170 0:04:05.662 34411 kbps 55585 kbps 01:11:25.989 40327 kbps 01:11:24.863 37154 kbps 01:11:19.566 179401 bytes 910507 bytes 01:10:07.745
13 1:12:58.832 0:06:24.092 34609 kbps 47429 kbps 01:18:34.960 40878 kbps 01:17:41.323 38035 kbps 01:17:27.476 180437 bytes 958362 bytes 01:17:33.940
14 1:19:22.924 0:05:07.932 33810 kbps 51355 kbps 01:23:39.013 41020 kbps 01:19:25.844 38268 kbps 01:19:49.534 176268 bytes 953692 bytes 01:20:24.402
15 1:24:30.857 0:04:38.027 32850 kbps 49453 kbps 01:26:34.981 40400 kbps 01:27:00.048 37157 kbps 01:26:57.378 171266 bytes 957565 bytes 01:26:33.521
16 1:29:08.885 0:05:45.887 32826 kbps 53904 kbps 01:34:15.316 40516 kbps 01:33:11.585 38108 kbps 01:33:30.813 171141 bytes 935453 bytes 01:30:38.474
17 1:34:54.772 0:04:15.129 33186 kbps 49947 kbps 01:37:51.782 40379 kbps 01:37:21.710 37764 kbps 01:37:20.125 173015 bytes 928635 bytes 01:38:49.256
18 1:39:09.902 0:01:39.099 34162 kbps 58254 kbps 01:39:11.028 40152 kbps 01:39:43.268 38108 kbps 01:40:06.834 178103 bytes 948362 bytes 01:40:30.858
19 1:40:49.001 0:00:01.001 78 kbps 0 kbps 00:00:00.000 0 kbps 00:00:00.000 0 kbps 00:00:00.000 423 bytes 532 bytes 01:40:49.960

STREAM DIAGNOSTICS:

File PID Type Codec Language Seconds Bitrate Bytes Packets
---- --- ---- ----- -------- -------------- -------------- ------------- -----
00000.M2TS 4113 (0x1011) 0x1B AVC 12.054 29004 43700977 237690
00000.M2TS 4352 (0x1100) 0x80 LPCM jpn (Japanese) 12.054 2335 3517584 19488
00000.M2TS 4353 (0x1101) 0x86 DTS-HD MA jpn (Japanese) 12.054 3121 4702080 27609
00000.M2TS 4354 (0x1102) 0x81 AC3 eng (English) 12.054 388 585216 3429
00000.M2TS 4355 (0x1103) 0x81 AC3 rus (Russian) 12.054 453 682752 3810
00000.M2TS 4356 (0x1104) 0x82 DTS-ES rus (Russian) 12.054 776 1169408 6852
00000.M2TS 4357 (0x1105) 0x81 AC3 rus (Russian) 12.054 453 682752 3810
00000.M2TS 4358 (0x1106) 0x81 AC3 rus (Russian) 12.054 453 682752 3810
00000.M2TS 4608 (0x1200) 0x90 PGS jpn (Japanese) 12.054 4 6762 44
00000.M2TS 4609 (0x1201) 0x90 PGS eng (English) 12.054 61 92510 511
00000.M2TS 4610 (0x1202) 0x90 PGS rus (Russian) 12.054 672 1013062 5610
00000.M2TS 4611 (0x1203) 0x90 PGS rus (Russian) 12.054 10 15473 91
00000.M2TS 4612 (0x1204) 0x90 PGS rus (Russian) 12.054 24 35986 202
00000.M2TS 4613 (0x1205) 0x90 PGS rus (Russian) 12.054 15 22887 131
00002.M2TS 4113 (0x1011) 0x1B AVC 262.679 34198 1122897777 6106422
00002.M2TS 4352 (0x1100) 0x80 LPCM jpn (Japanese) 262.679 2312 75898084 420488
00002.M2TS 4353 (0x1101) 0x86 DTS-HD MA jpn (Japanese) 262.679 4647 152595724 870280
00002.M2TS 4354 (0x1102) 0x81 AC3 eng (English) 262.679 384 12615168 73917
00002.M2TS 4355 (0x1103) 0x81 AC3 rus (Russian) 262.679 448 14717696 82130
00002.M2TS 4356 (0x1104) 0x82 DTS-ES rus (Russian) 262.679 768 25229312 147828
00002.M2TS 4357 (0x1105) 0x81 AC3 rus (Russian) 262.679 448 14717696 82130
00002.M2TS 4358 (0x1106) 0x81 AC3 rus (Russian) 262.679 448 14717696 82130
00002.M2TS 4608 (0x1200) 0x90 PGS jpn (Japanese) 262.679 0 6762 44
00002.M2TS 4609 (0x1201) 0x90 PGS eng (English) 262.679 0 6762 44
00002.M2TS 4610 (0x1202) 0x90 PGS rus (Russian) 262.679 0 5736 38
00002.M2TS 4611 (0x1203) 0x90 PGS rus (Russian) 262.679 0 6762 44
00002.M2TS 4612 (0x1204) 0x90 PGS rus (Russian) 262.679 0 6793 50
00002.M2TS 4613 (0x1205) 0x90 PGS rus (Russian) 262.679 0 6762 44
00003.M2TS 4113 (0x1011) 0x1B AVC 138.221 34641 598521084 3254787
00003.M2TS 4352 (0x1100) 0x80 LPCM jpn (Japanese) 138.221 2313 39955480 221360
00003.M2TS 4353 (0x1101) 0x86 DTS-HD MA jpn (Japanese) 138.221 4714 81442060 464291
00003.M2TS 4354 (0x1102) 0x81 AC3 eng (English) 138.221 384 6641664 38916
00003.M2TS 4355 (0x1103) 0x81 AC3 rus (Russian) 138.221 448 7748608 43240
00003.M2TS 4356 (0x1104) 0x82 DTS-ES rus (Russian) 138.221 769 13281280 77820
00003.M2TS 4357 (0x1105) 0x81 AC3 rus (Russian) 138.221 448 7748608 43240
00003.M2TS 4358 (0x1106) 0x81 AC3 rus (Russian) 138.221 448 7748608 43240
00003.M2TS 4608 (0x1200) 0x90 PGS jpn (Japanese) 138.221 10 173079 1013
00003.M2TS 4609 (0x1201) 0x90 PGS eng (English) 138.221 25 439120 2488
00003.M2TS 4610 (0x1202) 0x90 PGS rus (Russian) 138.221 642 11096143 61950
00003.M2TS 4611 (0x1203) 0x90 PGS rus (Russian) 138.221 7 114046 678
00003.M2TS 4612 (0x1204) 0x90 PGS rus (Russian) 138.221 19 324798 1831
00003.M2TS 4613 (0x1205) 0x90 PGS rus (Russian) 138.221 12 199577 1157
00005.M2TS 4113 (0x1011) 0x1B AVC 1214.130 33048 5015620289 27275895
00005.M2TS 4352 (0x1100) 0x80 LPCM jpn (Japanese) 1214.130 2311 350676844 1942808
00005.M2TS 4353 (0x1101) 0x86 DTS-HD MA jpn (Japanese) 1214.130 4487 681005516 3890462
00005.M2TS 4354 (0x1102) 0x81 AC3 eng (English) 1214.130 384 58285056 341514
00005.M2TS 4355 (0x1103) 0x81 AC3 rus (Russian) 1214.130 448 67999232 379460
00005.M2TS 4356 (0x1104) 0x82 DTS-ES rus (Russian) 1214.130 768 116569088 683022
00005.M2TS 4357 (0x1105) 0x81 AC3 rus (Russian) 1214.130 448 67999232 379460
00005.M2TS 4358 (0x1106) 0x81 AC3 rus (Russian) 1214.130 448 67999232 379460
00005.M2TS 4608 (0x1200) 0x90 PGS jpn (Japanese) 1214.130 20 2992186 17958
00005.M2TS 4609 (0x1201) 0x90 PGS eng (English) 1214.130 20 2982856 17463
00005.M2TS 4610 (0x1202) 0x90 PGS rus (Russian) 1214.130 13 1983893 11896
00005.M2TS 4611 (0x1203) 0x90 PGS rus (Russian) 1214.130 13 1904791 11460
00005.M2TS 4612 (0x1204) 0x90 PGS rus (Russian) 1214.130 13 1999601 12177
00005.M2TS 4613 (0x1205) 0x90 PGS rus (Russian) 1214.130 14 2173783 13133
00006.M2TS 4113 (0x1011) 0x1B AVC 145.312 31233 567311011 3085277
00006.M2TS 4352 (0x1100) 0x80 LPCM jpn (Japanese) 145.312 2312 42003072 232704
00006.M2TS 4353 (0x1101) 0x86 DTS-HD MA jpn (Japanese) 145.312 4331 78665240 450332
00006.M2TS 4354 (0x1102) 0x81 AC3 eng (English) 145.312 384 6981120 40905
00006.M2TS 4355 (0x1103) 0x81 AC3 rus (Russian) 145.312 448 8144640 45450
00006.M2TS 4356 (0x1104) 0x82 DTS-ES rus (Russian) 145.312 769 13962240 81810
00006.M2TS 4357 (0x1105) 0x81 AC3 rus (Russian) 145.312 448 8144640 45450
00006.M2TS 4358 (0x1106) 0x81 AC3 rus (Russian) 145.312 448 8144640 45450
00006.M2TS 4608 (0x1200) 0x90 PGS jpn (Japanese) 145.312 11 205451 1225
00006.M2TS 4609 (0x1201) 0x90 PGS eng (English) 145.312 21 377356 2339
00006.M2TS 4610 (0x1202) 0x90 PGS rus (Russian) 145.312 64 1164442 6708
00006.M2TS 4611 (0x1203) 0x90 PGS rus (Russian) 145.312 14 249823 1613
00006.M2TS 4612 (0x1204) 0x90 PGS rus (Russian) 145.312 15 281050 1712
00006.M2TS 4613 (0x1205) 0x90 PGS rus (Russian) 145.312 12 215309 1304
00008.M2TS 4113 (0x1011) 0x1B AVC 4176.756 33250 17359436696 94403565
00008.M2TS 4352 (0x1100) 0x80 LPCM jpn (Japanese) 4176.756 2310 1206284388 6683016
00008.M2TS 4353 (0x1101) 0x86 DTS-HD MA jpn (Japanese) 4176.756 4547 2374130624 13554007
00008.M2TS 4354 (0x1102) 0x81 AC3 eng (English) 4176.756 384 200491008 1174752
00008.M2TS 4355 (0x1103) 0x81 AC3 rus (Russian) 4176.756 448 233906176 1305280
00008.M2TS 4356 (0x1104) 0x82 DTS-ES rus (Russian) 4176.756 768 400980992 2349498
00008.M2TS 4357 (0x1105) 0x81 AC3 rus (Russian) 4176.756 448 233906176 1305280
00008.M2TS 4358 (0x1106) 0x81 AC3 rus (Russian) 4176.756 448 233906176 1305280
00008.M2TS 4608 (0x1200) 0x90 PGS jpn (Japanese) 4176.756 20 10438700 62475
00008.M2TS 4609 (0x1201) 0x90 PGS eng (English) 4176.756 21 10751118 62638
00008.M2TS 4610 (0x1202) 0x90 PGS rus (Russian) 4176.756 13 6921879 41263
00008.M2TS 4611 (0x1203) 0x90 PGS rus (Russian) 4176.756 13 6601574 39591
00008.M2TS 4612 (0x1204) 0x90 PGS rus (Russian) 4176.756 15 7624086 46091
00008.M2TS 4613 (0x1205) 0x90 PGS rus (Russian) 4176.756 12 6259001 37893
00009.M2TS 4113 (0x1011) 0x1B AVC 99.975 33864 423189811 2301352
00009.M2TS 4352 (0x1100) 0x80 LPCM jpn (Japanese) 99.975 2313 28910324 160168
00009.M2TS 4353 (0x1101) 0x86 DTS-HD MA jpn (Japanese) 99.975 4700 58741036 334855
00009.M2TS 4354 (0x1102) 0x81 AC3 eng (English) 99.975 377 4709376 27594
00009.M2TS 4355 (0x1103) 0x81 AC3 rus (Russian) 99.975 444 5549824 30970
00009.M2TS 4356 (0x1104) 0x82 DTS-ES rus (Russian) 99.975 769 9614336 56334
00009.M2TS 4357 (0x1105) 0x81 AC3 rus (Russian) 99.975 444 5549824 30970
00009.M2TS 4358 (0x1106) 0x81 AC3 rus (Russian) 99.975 444 5549824 30970
00009.M2TS 4608 (0x1200) 0x90 PGS jpn (Japanese) 99.975 22 280802 1641
00009.M2TS 4609 (0x1201) 0x90 PGS eng (English) 99.975 46 579396 3299
00009.M2TS 4610 (0x1202) 0x90 PGS rus (Russian) 99.975 160 2004218 11313
00009.M2TS 4611 (0x1203) 0x90 PGS rus (Russian) 99.975 23 285214 1666
00009.M2TS 4612 (0x1204) 0x90 PGS rus (Russian) 99.975 40 502872 2833
00009.M2TS 4613 (0x1205) 0x90 PGS rus (Russian) 99.975 17 210790 1249
<pre>
<---- END FORUMS PASTE ---->

QUICK SUMMARY:

Disc Title: Gake no Ue no Ponyo Disc 1Disc Size: 44 712 555 868 bytesProtection: AACSBD-Java: NoPlaylist: 00000.MPLSSize: 34 061 144 064 bytesLength: 1:40:50.002Total Bitrate: 45.04 MbpsVideo: MPEG-4 AVC Video / 33231 kbps / 1080p / 23.976 fps / 16:9 / High Profile 4.1Audio: Japanese / LPCM Audio / 2.0 / 48 kHz / 2304 kbps / 24-bitAudio: Japanese / DTS-HD Master Audio / 6.1 / 48 kHz / 4537 kbps / 24-bit (DTS Core: 6.1-ES / 48 kHz / 1509 kbps / 24-bit)Audio: English / Dolby Digital Audio / 5.1 / 48 kHz / 384 kbps / DN -4dBAudio: Russian / Dolby Digital Audio / 5.1 / 48 kHz / 448 kbps / DN -4dBAudio: Russian / DTS-ES Audio / 6.1-ES / 48 kHz / 768 kbps / 16-bitAudio: Russian / Dolby Digital Audio / 5.1 / 48 kHz / 448 kbps / DN -4dBAudio: Russian / Dolby Digital Audio / 5.1 / 48 kHz / 448 kbps / DN -4dBSubtitle: Japanese / 18.650 kbpsSubtitle: English / 20.138 kbpsSubtitle: Russian / 31.986 kbpsSubtitle: Russian / 12.136 kbpsSubtitle: Russian / 14.248 kbpsSubtitle: Russian / 12.017 kbps

********************PLAYLIST: 00001.MPLS********************

<--- BEGIN FORUMS PASTE --->
</pre>
Total Video
Title Codec Length Movie Size Disc Size Bitrate Bitrate Main Audio Track Secondary Audio Track
----- ------ ------- -------------- -------------- ------- ------- ------------------ ---------------------
00001.MPLS AVC 1:42:14 34424322048 44712555868 44.90 33.20 LPCM 2.0 2304Kbps (48kHz/24-bit) DTS-HD Master 6.1 4475Kbps (48kHz/24-bit)
DISC INFO:

Disc Title: Gake no Ue no Ponyo Disc 1
Disc Size: 44712555868 bytes
Protection: AACS
BD-Java: No
BDInfo: 0.5.8

PLAYLIST REPORT:

Name: 00001.MPLS
Length: 1:42:14.086 (h:m:s.ms)
Size: 34424322048 bytes
Total Bitrate: 44.90 Mbps

VIDEO:

Codec Bitrate Description
----- ------- -----------
MPEG-4 AVC Video 33199 kbps 1080p / 23.976 fps / 16:9 / High Profile 4.1

AUDIO:

Codec Language Bitrate Description
----- -------- ------- -----------
LPCM Audio Japanese 2304 kbps 2.0 / 48 kHz / 2304 kbps / 24-bit
DTS-HD Master Audio Japanese 4475 kbps 6.1 / 48 kHz / 4475 kbps / 24-bit (DTS Core: 6.1-ES / 48 kHz / 1509 kbps / 24-bit)
Dolby Digital Audio English 384 kbps 5.1 / 48 kHz / 384 kbps / DN -4dB
Dolby Digital Audio Russian 448 kbps 5.1 / 48 kHz / 448 kbps / DN -4dB
DTS-ES Audio Russian 768 kbps 6.1-ES / 48 kHz / 768 kbps / 16-bit
Dolby Digital Audio Russian 448 kbps 5.1 / 48 kHz / 448 kbps / DN -4dB
Dolby Digital Audio Russian 448 kbps 5.1 / 48 kHz / 448 kbps / DN -4dB

SUBTITLES:

Codec Language Bitrate Description
----- -------- ------- -----------
Presentation Graphics Japanese 18.394 kbps
Presentation Graphics English 19.862 kbps
Presentation Graphics Russian 24.729 kbps
Presentation Graphics Russian 11.969 kbps
Presentation Graphics Russian 14.053 kbps
Presentation Graphics Russian 11.853 kbps

FILES:

Name Time In Length Size Total Bitrate
---- ------- ------ ---- -------------
00001.M2TS 0:00:00.000 0:00:12.178 60530688 39761
00002.M2TS 0:00:12.178 0:04:22.804 1511884800 46023
00004.M2TS 0:04:34.983 0:02:18.346 793165824 45865
00005.M2TS 0:06:53.329 0:20:14.254 6796197888 44776
00007.M2TS 0:27:07.584 0:02:25.436 776847360 42732
00008.M2TS 0:29:33.021 1:09:36.881 23522027520 45052
00010.M2TS 1:39:09.902 0:03:04.183 963667968 41857

CHAPTERS:

Number Time In Length Avg Video Rate Max 1-Sec Rate Max 1-Sec Time Max 5-Sec Rate Max 5-Sec Time Max 10Sec Rate Max 10Sec Time Avg Frame Size Max Frame Size Max Frame Time
------ ------- ------ -------------- -------------- -------------- -------------- -------------- -------------- -------------- -------------- -------------- --------------
1 0:00:00.000 0:04:34.983 33944 kbps 59120 kbps 00:00:13.221 40708 kbps 00:01:06.566 38155 kbps 00:00:41.458 176943 bytes 860684 bytes 00:01:30.840
2 0:04:34.983 0:05:23.322 32764 kbps 60076 kbps 00:05:49.182 40451 kbps 00:07:00.461 38045 kbps 00:04:43.950 170817 bytes 925792 bytes 00:08:08.321
3 0:09:58.306 0:06:15.792 34001 kbps 51232 kbps 00:13:59.505 40355 kbps 00:13:30.684 37777 kbps 00:12:11.897 177266 bytes 952992 bytes 00:14:42.006
4 0:16:14.098 0:04:47.996 32720 kbps 46810 kbps 00:20:42.741 38585 kbps 00:19:39.136 36639 kbps 00:20:41.239 170587 bytes 947044 bytes 00:17:35.387
5 0:21:02.094 0:06:05.490 32776 kbps 51660 kbps 00:22:31.850 39844 kbps 00:24:44.566 37270 kbps 00:22:41.693 170877 bytes 947223 bytes 00:24:05.360
6 0:27:07.584 0:08:13.784 31905 kbps 57737 kbps 00:29:09.831 40345 kbps 00:30:50.974 37390 kbps 00:31:20.628 166340 bytes 961967 bytes 00:27:10.587
7 0:35:21.369 0:06:00.401 33976 kbps 53409 kbps 00:38:31.517 40466 kbps 00:39:40.419 37753 kbps 00:39:35.998 177135 bytes 890415 bytes 00:35:36.342
8 0:41:21.770 0:07:12.431 34320 kbps 57455 kbps 00:41:56.847 40509 kbps 00:45:27.224 38120 kbps 00:45:22.177 178927 bytes 892050 bytes 00:42:07.483
9 0:48:34.202 0:06:47.448 32274 kbps 56245 kbps 00:50:49.588 39843 kbps 00:49:58.912 37245 kbps 00:50:07.754 168264 bytes 864662 bytes 00:53:07.309
10 0:55:21.651 0:06:39.023 30980 kbps 57128 kbps 01:01:10.875 39698 kbps 00:57:23.481 36183 kbps 00:57:18.643 161515 bytes 925944 bytes 00:57:25.567
11 1:02:00.675 0:06:52.495 33798 kbps 54860 kbps 01:03:54.121 40263 kbps 01:03:22.673 37551 kbps 01:06:32.947 176209 bytes 861279 bytes 01:06:33.030
12 1:08:53.170 0:04:05.662 34411 kbps 55585 kbps 01:11:25.989 40327 kbps 01:11:24.863 37154 kbps 01:11:19.566 179401 bytes 910507 bytes 01:10:07.745
13 1:12:58.832 0:06:24.092 34609 kbps 47429 kbps 01:18:34.960 40878 kbps 01:17:41.323 38035 kbps 01:17:27.476 180437 bytes 958362 bytes 01:17:33.940
14 1:19:22.924 0:05:07.932 33810 kbps 51355 kbps 01:23:39.013 41020 kbps 01:19:25.844 38268 kbps 01:19:49.534 176268 bytes 953692 bytes 01:20:24.402
15 1:24:30.857 0:04:38.027 32850 kbps 49453 kbps 01:26:34.981 40400 kbps 01:27:00.048 37157 kbps 01:26:57.378 171266 bytes 957565 bytes 01:26:33.521
16 1:29:08.885 0:05:45.887 32826 kbps 53904 kbps 01:34:15.316 40516 kbps 01:33:11.585 38108 kbps 01:33:30.813 171141 bytes 935453 bytes 01:30:38.474
17 1:34:54.772 0:04:15.129 33186 kbps 49947 kbps 01:37:51.782 40379 kbps 01:37:21.710 37764 kbps 01:37:20.125 173015 bytes 928635 bytes 01:38:49.256
18 1:39:09.902 0:03:03.183 33486 kbps 57181 kbps 01:39:11.195 39893 kbps 01:41:09.813 36653 kbps 01:41:09.813 174581 bytes 959277 bytes 01:41:34.838
19 1:42:13.085 0:00:01.001 78 kbps 0 kbps 00:00:00.000 0 kbps 00:00:00.000 0 kbps 00:00:00.000 423 bytes 532 bytes 01:42:14.044

STREAM DIAGNOSTICS:

File PID Type Codec Language Seconds Bitrate Bytes Packets
---- --- ---- ----- -------- -------------- -------------- ------------- -----
00001.M2TS 4113 (0x1011) 0x1B AVC 12.054 29107 43855676 238518
00001.M2TS 4352 (0x1100) 0x80 LPCM jpn (Japanese) 12.054 2335 3517584 19488
00001.M2TS 4353 (0x1101) 0x86 DTS-HD MA jpn (Japanese) 12.054 3121 4702080 27609
00001.M2TS 4354 (0x1102) 0x81 AC3 eng (English) 12.054 388 585216 3429
00001.M2TS 4355 (0x1103) 0x81 AC3 rus (Russian) 12.054 453 682752 3810
00001.M2TS 4356 (0x1104) 0x82 DTS-ES rus (Russian) 12.054 776 1169408 6852
00001.M2TS 4357 (0x1105) 0x81 AC3 rus (Russian) 12.054 453 682752 3810
00001.M2TS 4358 (0x1106) 0x81 AC3 rus (Russian) 12.054 453 682752 3810
00001.M2TS 4608 (0x1200) 0x90 PGS jpn (Japanese) 12.054 4 6762 44
00001.M2TS 4609 (0x1201) 0x90 PGS eng (English) 12.054 61 92510 511
00001.M2TS 4610 (0x1202) 0x90 PGS rus (Russian) 12.054 782 1178843 6507
00001.M2TS 4611 (0x1203) 0x90 PGS rus (Russian) 12.054 10 15473 91
00001.M2TS 4612 (0x1204) 0x90 PGS rus (Russian) 12.054 24 35986 202
00001.M2TS 4613 (0x1205) 0x90 PGS rus (Russian) 12.054 15 22887 131
00002.M2TS 4113 (0x1011) 0x1B AVC 262.679 34198 1122897777 6106422
00002.M2TS 4352 (0x1100) 0x80 LPCM jpn (Japanese) 262.679 2312 75898084 420488
00002.M2TS 4353 (0x1101) 0x86 DTS-HD MA jpn (Japanese) 262.679 4647 152595724 870280
00002.M2TS 4354 (0x1102) 0x81 AC3 eng (English) 262.679 384 12615168 73917
00002.M2TS 4355 (0x1103) 0x81 AC3 rus (Russian) 262.679 448 14717696 82130
00002.M2TS 4356 (0x1104) 0x82 DTS-ES rus (Russian) 262.679 768 25229312 147828
00002.M2TS 4357 (0x1105) 0x81 AC3 rus (Russian) 262.679 448 14717696 82130
00002.M2TS 4358 (0x1106) 0x81 AC3 rus (Russian) 262.679 448 14717696 82130
00002.M2TS 4608 (0x1200) 0x90 PGS jpn (Japanese) 262.679 0 6762 44
00002.M2TS 4609 (0x1201) 0x90 PGS eng (English) 262.679 0 6762 44
00002.M2TS 4610 (0x1202) 0x90 PGS rus (Russian) 262.679 0 5736 38
00002.M2TS 4611 (0x1203) 0x90 PGS rus (Russian) 262.679 0 6762 44
00002.M2TS 4612 (0x1204) 0x90 PGS rus (Russian) 262.679 0 6793 50
00002.M2TS 4613 (0x1205) 0x90 PGS rus (Russian) 262.679 0 6762 44
00004.M2TS 4113 (0x1011) 0x1B AVC 138.221 33587 580304616 3155753
00004.M2TS 4352 (0x1100) 0x80 LPCM jpn (Japanese) 138.221 2313 39955480 221360
00004.M2TS 4353 (0x1101) 0x86 DTS-HD MA jpn (Japanese) 138.221 4714 81442060 464291
00004.M2TS 4354 (0x1102) 0x81 AC3 eng (English) 138.221 384 6641664 38916
00004.M2TS 4355 (0x1103) 0x81 AC3 rus (Russian) 138.221 448 7748608 43240
00004.M2TS 4356 (0x1104) 0x82 DTS-ES rus (Russian) 138.221 769 13281280 77820
00004.M2TS 4357 (0x1105) 0x81 AC3 rus (Russian) 138.221 448 7748608 43240
00004.M2TS 4358 (0x1106) 0x81 AC3 rus (Russian) 138.221 448 7748608 43240
00004.M2TS 4608 (0x1200) 0x90 PGS jpn (Japanese) 138.221 10 173079 1013
00004.M2TS 4609 (0x1201) 0x90 PGS eng (English) 138.221 25 439120 2488
00004.M2TS 4610 (0x1202) 0x90 PGS rus (Russian) 138.221 325 5612674 31401
00004.M2TS 4611 (0x1203) 0x90 PGS rus (Russian) 138.221 7 113724 669
00004.M2TS 4612 (0x1204) 0x90 PGS rus (Russian) 138.221 19 324798 1831
00004.M2TS 4613 (0x1205) 0x90 PGS rus (Russian) 138.221 12 199577 1157
00005.M2TS 4113 (0x1011) 0x1B AVC 1214.130 33048 5015620289 27275895
00005.M2TS 4352 (0x1100) 0x80 LPCM jpn (Japanese) 1214.130 2311 350676844 1942808
00005.M2TS 4353 (0x1101) 0x86 DTS-HD MA jpn (Japanese) 1214.130 4487 681005516 3890462
00005.M2TS 4354 (0x1102) 0x81 AC3 eng (English) 1214.130 384 58285056 341514
00005.M2TS 4355 (0x1103) 0x81 AC3 rus (Russian) 1214.130 448 67999232 379460
00005.M2TS 4356 (0x1104) 0x82 DTS-ES rus (Russian) 1214.130 768 116569088 683022
00005.M2TS 4357 (0x1105) 0x81 AC3 rus (Russian) 1214.130 448 67999232 379460
00005.M2TS 4358 (0x1106) 0x81 AC3 rus (Russian) 1214.130 448 67999232 379460
00005.M2TS 4608 (0x1200) 0x90 PGS jpn (Japanese) 1214.130 20 2992186 17958
00005.M2TS 4609 (0x1201) 0x90 PGS eng (English) 1214.130 20 2982856 17463
00005.M2TS 4610 (0x1202) 0x90 PGS rus (Russian) 1214.130 13 1983893 11896
00005.M2TS 4611 (0x1203) 0x90 PGS rus (Russian) 1214.130 13 1904791 11460
00005.M2TS 4612 (0x1204) 0x90 PGS rus (Russian) 1214.130 13 1999601 12177
00005.M2TS 4613 (0x1205) 0x90 PGS rus (Russian) 1214.130 14 2173783 13133
00007.M2TS 4113 (0x1011) 0x1B AVC 145.312 31214 566972986 3083401
00007.M2TS 4352 (0x1100) 0x80 LPCM jpn (Japanese) 145.312 2312 42003072 232704
00007.M2TS 4353 (0x1101) 0x86 DTS-HD MA jpn (Japanese) 145.312 4331 78665240 450332
00007.M2TS 4354 (0x1102) 0x81 AC3 eng (English) 145.312 384 6981120 40905
00007.M2TS 4355 (0x1103) 0x81 AC3 rus (Russian) 145.312 448 8144640 45450
00007.M2TS 4356 (0x1104) 0x82 DTS-ES rus (Russian) 145.312 769 13962240 81810
00007.M2TS 4357 (0x1105) 0x81 AC3 rus (Russian) 145.312 448 8144640 45450
00007.M2TS 4358 (0x1106) 0x81 AC3 rus (Russian) 145.312 448 8144640 45450
00007.M2TS 4608 (0x1200) 0x90 PGS jpn (Japanese) 145.312 11 205451 1225
00007.M2TS 4609 (0x1201) 0x90 PGS eng (English) 145.312 21 377356 2339
00007.M2TS 4610 (0x1202) 0x90 PGS rus (Russian) 145.312 71 1293256 7512
00007.M2TS 4611 (0x1203) 0x90 PGS rus (Russian) 145.312 14 249823 1613
00007.M2TS 4612 (0x1204) 0x90 PGS rus (Russian) 145.312 15 281050 1712
00007.M2TS 4613 (0x1205) 0x90 PGS rus (Russian) 145.312 12 215309 1304
00008.M2TS 4113 (0x1011) 0x1B AVC 4176.756 33250 17359436696 94403565
00008.M2TS 4352 (0x1100) 0x80 LPCM jpn (Japanese) 4176.756 2310 1206284388 6683016
00008.M2TS 4353 (0x1101) 0x86 DTS-HD MA jpn (Japanese) 4176.756 4547 2374130624 13554007
00008.M2TS 4354 (0x1102) 0x81 AC3 eng (English) 4176.756 384 200491008 1174752
00008.M2TS 4355 (0x1103) 0x81 AC3 rus (Russian) 4176.756 448 233906176 1305280
00008.M2TS 4356 (0x1104) 0x82 DTS-ES rus (Russian) 4176.756 768 400980992 2349498
00008.M2TS 4357 (0x1105) 0x81 AC3 rus (Russian) 4176.756 448 233906176 1305280
00008.M2TS 4358 (0x1106) 0x81 AC3 rus (Russian) 4176.756 448 233906176 1305280
00008.M2TS 4608 (0x1200) 0x90 PGS jpn (Japanese) 4176.756 20 10438700 62475
00008.M2TS 4609 (0x1201) 0x90 PGS eng (English) 4176.756 21 10751118 62638
00008.M2TS 4610 (0x1202) 0x90 PGS rus (Russian) 4176.756 13 6921879 41263
00008.M2TS 4611 (0x1203) 0x90 PGS rus (Russian) 4176.756 13 6601574 39591
00008.M2TS 4612 (0x1204) 0x90 PGS rus (Russian) 4176.756 15 7624086 46091
00008.M2TS 4613 (0x1205) 0x90 PGS rus (Russian) 4176.756 12 6259001 37893
00010.M2TS 4113 (0x1011) 0x1B AVC 184.059 33327 766773640 4169824
00010.M2TS 4352 (0x1100) 0x80 LPCM jpn (Japanese) 184.059 1257 28910324 160168
00010.M2TS 4353 (0x1101) 0x86 DTS-HD MA jpn (Japanese) 184.059 2553 58741036 334855
00010.M2TS 4354 (0x1102) 0x81 AC3 eng (English) 184.059 382 8793600 51525
00010.M2TS 4355 (0x1103) 0x81 AC3 rus (Russian) 184.059 446 10257408 57240
00010.M2TS 4356 (0x1104) 0x82 DTS-ES rus (Russian) 184.059 765 17590272 103068
00010.M2TS 4357 (0x1105) 0x81 AC3 rus (Russian) 184.059 446 10257408 57240
00010.M2TS 4358 (0x1106) 0x81 AC3 rus (Russian) 184.059 446 10257408 57240
00010.M2TS 4608 (0x1200) 0x90 PGS jpn (Japanese) 184.059 12 280802 1641
00010.M2TS 4609 (0x1201) 0x90 PGS eng (English) 184.059 25 579396 3299
00010.M2TS 4610 (0x1202) 0x90 PGS rus (Russian) 184.059 85 1965170 11096
00010.M2TS 4611 (0x1203) 0x90 PGS rus (Russian) 184.059 12 285214 1666
00010.M2TS 4612 (0x1204) 0x90 PGS rus (Russian) 184.059 22 502872 2833
00010.M2TS 4613 (0x1205) 0x90 PGS rus (Russian) 184.059 9 210790 1249
<pre>
<---- END FORUMS PASTE ---->

QUICK SUMMARY:

Disc Title: Gake no Ue no Ponyo Disc 1Disc Size: 44 712 555 868 bytesProtection: AACSBD-Java: NoPlaylist: 00001.MPLSSize: 34 424 322 048 bytesLength: 1:42:14.086Total Bitrate: 44.90 MbpsVideo: MPEG-4 AVC Video / 33199 kbps / 1080p / 23.976 fps / 16:9 / High Profile 4.1Audio: Japanese / LPCM Audio / 2.0 / 48 kHz / 2304 kbps / 24-bitAudio: Japanese / DTS-HD Master Audio / 6.1 / 48 kHz / 4475 kbps / 24-bit (DTS Core: 6.1-ES / 48 kHz / 1509 kbps / 24-bit)Audio: English / Dolby Digital Audio / 5.1 / 48 kHz / 384 kbps / DN -4dBAudio: Russian / Dolby Digital Audio / 5.1 / 48 kHz / 448 kbps / DN -4dBAudio: Russian / DTS-ES Audio / 6.1-ES / 48 kHz / 768 kbps / 16-bitAudio: Russian / Dolby Digital Audio / 5.1 / 48 kHz / 448 kbps / DN -4dBAudio: Russian / Dolby Digital Audio / 5.1 / 48 kHz / 448 kbps / DN -4dBSubtitle: Japanese / 18.394 kbpsSubtitle: English / 19.862 kbpsSubtitle: Russian / 24.729 kbpsSubtitle: Russian / 11.969 kbpsSubtitle: Russian / 14.053 kbpsSubtitle: Russian / 11.853 kbps

********************PLAYLIST: 00003.MPLS********************

<--- BEGIN FORUMS PASTE --->
</pre>
Total Video
Title Codec Length Movie Size Disc Size Bitrate Bitrate Main Audio Track Secondary Audio Track
----- ------ ------- -------------- -------------- ------- ------- ------------------ ---------------------
00003.MPLS AVC 1:40:50 5357635584 44712555868 7.08 2.94 DD AC3 2.0 192Kbps
DISC INFO:

Disc Title: Gake no Ue no Ponyo Disc 1
Disc Size: 44712555868 bytes
Protection: AACS
BD-Java: No
BDInfo: 0.5.8

PLAYLIST REPORT:

Name: 00003.MPLS
Length: 1:40:50.002 (h:m:s.ms)
Size: 5357635584 bytes
Total Bitrate: 7.08 Mbps

VIDEO:

Codec Bitrate Description
----- ------- -----------
MPEG-4 AVC Video 2937 kbps 1080p / 23.976 fps / 16:9 / High Profile 4.1
MPEG-4 AVC Video 3522 kbps 480p / 23.976 fps / 16:9 / High Profile 3.2

AUDIO:

Codec Language Bitrate Description
----- -------- ------- -----------
Dolby Digital Audio Japanese 192 kbps 2.0 / 48 kHz / 192 kbps / DN -4dB

SUBTITLES:

Codec Language Bitrate Description
----- -------- ------- -----------
Presentation Graphics Russian 12.076 kbps

FILES:

Name Time In Length Size Total Bitrate
---- ------- ------ ---- -------------
00015.M2TS 0:00:00.000 1:40:50.002 5357635584 7084

CHAPTERS:

Number Time In Length Avg Video Rate Max 1-Sec Rate Max 1-Sec Time Max 5-Sec Rate Max 5-Sec Time Max 10Sec Rate Max 10Sec Time Avg Frame Size Max Frame Size Max Frame Time
------ ------- ------ -------------- -------------- -------------- -------------- -------------- -------------- -------------- -------------- -------------- --------------
1 0:00:00.000 0:04:34.983 3172 kbps 8389 kbps 00:02:08.211 6440 kbps 00:00:42.751 5807 kbps 00:00:41.416 16534 bytes 409731 bytes 00:00:44.961
2 0:04:34.983 0:05:23.323 3366 kbps 9086 kbps 00:05:02.885 5673 kbps 00:07:41.460 5407 kbps 00:04:43.908 17547 bytes 542232 bytes 00:04:43.992
3 0:09:58.306 0:06:15.792 3128 kbps 8147 kbps 00:14:44.967 6036 kbps 00:14:42.923 5056 kbps 00:14:39.336 16310 bytes 419439 bytes 00:16:14.098
4 0:16:14.098 0:04:47.996 2769 kbps 10330 kbps 00:18:27.815 5228 kbps 00:18:27.189 4097 kbps 00:16:14.974 14436 bytes 435707 bytes 00:17:35.387
5 0:21:02.094 0:06:05.490 2979 kbps 9311 kbps 00:22:39.858 5156 kbps 00:22:42.819 4872 kbps 00:22:39.232 15529 bytes 507818 bytes 00:23:51.138
6 0:27:07.584 0:08:13.784 2922 kbps 8285 kbps 00:35:20.118 5477 kbps 00:30:11.643 4976 kbps 00:30:07.222 15233 bytes 490964 bytes 00:35:18.157
7 0:35:21.369 0:06:00.401 3379 kbps 10934 kbps 00:36:06.414 6722 kbps 00:36:05.288 5368 kbps 00:39:11.932 17617 bytes 477895 bytes 00:36:07.039
8 0:41:21.770 0:07:12.431 3124 kbps 8167 kbps 00:48:25.027 5635 kbps 00:48:23.150 4662 kbps 00:48:19.897 16287 bytes 397946 bytes 00:45:29.351
9 0:48:34.202 0:06:47.448 2575 kbps 10151 kbps 00:49:14.868 5074 kbps 00:49:12.908 4060 kbps 00:49:08.654 13424 bytes 443564 bytes 00:55:21.651
10 0:55:21.651 0:06:39.023 2717 kbps 7509 kbps 00:56:43.316 5285 kbps 00:59:19.180 4599 kbps 00:56:42.190 14163 bytes 443553 bytes 00:55:22.569
11 1:02:00.675 0:06:52.495 2778 kbps 11622 kbps 01:05:32.345 5659 kbps 01:05:31.594 4161 kbps 01:05:29.759 14483 bytes 385971 bytes 01:04:19.856
12 1:08:53.170 0:04:05.662 2588 kbps 6851 kbps 01:11:24.363 4098 kbps 01:11:23.821 3610 kbps 01:10:59.630 13494 bytes 348140 bytes 01:10:19.340
13 1:12:58.832 0:06:24.092 2585 kbps 6579 kbps 01:14:31.049 4844 kbps 01:13:32.825 4103 kbps 01:13:28.320 13475 bytes 318693 bytes 01:17:32.981
14 1:19:22.924 0:05:07.932 2772 kbps 8989 kbps 01:24:17.802 5225 kbps 01:24:16.593 4458 kbps 01:20:16.311 14452 bytes 355871 bytes 01:22:26.232
15 1:24:30.857 0:04:38.027 2964 kbps 8372 kbps 01:26:14.419 5256 kbps 01:26:10.415 5054 kbps 01:26:10.039 15450 bytes 468215 bytes 01:26:15.420
16 1:29:08.885 0:05:45.887 2960 kbps 16816 kbps 01:33:11.836 6836 kbps 01:33:11.544 5109 kbps 01:33:09.041 15432 bytes 536214 bytes 01:33:12.295
17 1:34:54.772 0:04:15.129 2809 kbps 33907 kbps 01:39:07.858 11327 kbps 01:39:03.604 7428 kbps 01:38:58.641 14646 bytes 642623 bytes 01:39:08.192
18 1:39:09.902 0:01:39.099 4126 kbps 36716 kbps 01:40:45.247 15647 kbps 01:40:41.493 9051 kbps 01:40:36.530 21513 bytes 614622 bytes 01:40:45.664
19 1:40:49.001 0:00:01.001 123 kbps 0 kbps 00:00:00.000 0 kbps 00:00:00.000 0 kbps 00:00:00.000 668 bytes 1018 bytes 01:40:49.168

STREAM DIAGNOSTICS:

File PID Type Codec Language Seconds Bitrate Bytes Packets
---- --- ---- ----- -------- -------------- -------------- ------------- -----
00015.M2TS 4113 (0x1011) 0x1B AVC 6049.877 2937 2221020901 12143622
00015.M2TS 4352 (0x1100) 0x81 AC3 jpn (Japanese) 6049.877 192 145201152 945320
00015.M2TS 4608 (0x1200) 0x90 PGS rus (Russian) 6049.877 12 9132835 54521
00015.M2TS 6912 (0x1B00) 0x1B AVC 6049.877 3522 2663136284 14558190
<pre>
<---- END FORUMS PASTE ---->

QUICK SUMMARY:

Disc Title: Gake no Ue no Ponyo Disc 1Disc Size: 44 712 555 868 bytesProtection: AACSBD-Java: NoPlaylist: 00003.MPLSSize: 5 357 635 584 bytesLength: 1:40:50.002Total Bitrate: 7.08 MbpsVideo: MPEG-4 AVC Video / 2937 kbps / 1080p / 23.976 fps / 16:9 / High Profile 4.1Video: MPEG-4 AVC Video / 3522 kbps / 480p / 23.976 fps / 16:9 / High Profile 3.2Audio: Japanese / Dolby Digital Audio / 2.0 / 48 kHz / 192 kbps / DN -4dBSubtitle: Russian / 12.076 kbps
</pre>
[url]...2541380[/url]
[url]...2522464[/url]
Blu-ray
"Ѩ Ȼ"

1: 2010
14.07.2010 [url=...4629918] [/url] (1984)
22.12.2010 [url=...3690943] [/url] (1986)
22.12.2010 [url=...4119317] [/url] (1999)

2: 2011
17.06.2011 [url=...5071976] [/url] (2010)
20.07.2011 [url=...4178733]ظ [/url] (1995)

3: 2011
16.11.2011 [url=...3875703] [/url] (2004)
16.11.2011 [url=...4465304] [/url] (2006)
16.11.2011 [url=...5180830] [/url] (2008)

4: 2012
20.06.2012 [url=...5135718] [/url] (2011)
18.07.2012 [url=...4766434] [/url] (1988)
18.07.2012 [url=...4651642] [/url] (1988)

5: 2012
04.12.2012 [url=...4901371] [/url] (1989)
04.12.2012 (1991)

6: 2013
17.07.2013 (1992)
06.11.2013 [url=...4936128] [/url] (1994)

7: 2013
04.12.2013 [url=...4851914] [/url] (1997)
04.12.2013 [url=...5006347] + [/url] (2002)

8: 2014
18.06.2014 (2013)
16.07.2014 [url=...5043266] [/url] (2001)
06.08.2014 [url=...5117796] III: [/url] (1979)

9: 2014-2015
03.12.2014 [url=...4989310] [/url] (2013)
18.03.2015 (2014)
17.07.2015 (1993)



04.07.2007 [url=...2249223] [/url] (2007)
19.12.2007 [url=...4818346] : ""[/url] (2007)
03.07.2009 [url=...3692012] "". 25 [/url] (2008)
17.11.2010 (2010)
21.05.2014 [url=...4929876] [/url] (2014)
02.07.2014 + (1972)
02.07.2014 [url=...4979621] - [/url] (2013)
27.10.2014 [url=...4978082]On Your Mark[/url] (1995)
17.07.2015 (1972)
17.07.2015 (1982)



25.07.2008 [url=...4722800] [/url] (1981)
25.07.2008 [url=...4612785] [/url] (1984)


 ·  , , FAQ-
:  [ 07--2016 23:30 ]

  

.torrent

.torrent 178 KB


: 60.7 GB
(hash) : 9e590421778f5c5a9fd7e4e8dd11e50da1be30c4
:
··
...

Ponyo on the Cliff by the Sea . !

!