Скачать через торрент Сержант Кэроро бесплатно Аниме Все серии на русском torrent

Если у вас наблюдаются проблемы со скриншотами, переходом по ссылками, скачиванием торрентов - проблемы в блокировщике рекламы AdBlock. #хорошегоДня!


Статистика раздачи
Размер:  4.36 GB   |    Зарегистрирован:  1 год 5 месяцев   |    .torrent скачан:  37 раз   |   
Раздают:  1  
   
Загрузка...
 
Автор Сообщение

Galfimbul

avatar Galfimbul


Сержант Кэроро (фильм первый) / Chou Gekijouban Keroro Gunsou

Страна: Япония
Год выпуска: 2006 г.
Жанр: приключения, комедия
Тип: Movie
Продолжительность: 60 мин
Режиссер: Сато Дзюнъити

Описание: «2004 год. Планета Земля внезапно подвергается атаке инопланетных существ. Миллионы вражеских судов атакуют землян. Люди пытаются дать отпор захватчикам, но мощь внеземной цивилизации намного превосходит возможности объединенных сил Земли. Человечество вынуждено безоговорочно капитулировать…»

…По крайней мере, так ДОЛЖНО было случиться!

Лягушкоподобный сержант Кэроро – разведчик упомянутого выше космического флота. Он прибыл на Землю с важнейшей и ответственнейшей задачей: собрать информацию о землянах и подготовить плацдарм для вторжения. Случай привел его в дом семьи Хэнато. Хэнато-мать – очень восторженная и очень фигуристая дама, небрежно и весело занимающаяся воспитанием детей, по профессии – сотрудник манга-издательства. Мацуми Хэнато – спортивная школьница, эдакий «воин в матроске». Хуюки Хэнато – тихий, скромный и добродушный мальчик, правда, увлекающийся оккультизмом.

Сержант сориентировался, провел рекогносцировку и только было собрался приступать к покорению семьи Хэнато как ближайшей к нему части Земли, как тут поступило сообщение от его начальства: экспансия откладывается по техническим причинам, равно как эвакуация самого Кэроро и его четырех подчиненных. Так инопланетные лягушки-захватчики оказались то ли заложниками, то ли гостями своих будущих противников...

Доп. информация: Японское издание. Перевод с японского и озвучиание - Юки Нацуи по заказу компании Animegroup в 2008 году. Дополнительные материалы - реклама.

Качество: DVD5
Формат экрана: 16:9
Система / Разрешение: NTSC (720x480)
Средний битрейт: 8 018 Kbps
Аудио: AC-3 ,384 Kbps, 6 channels Язык Русский
Аудио 2: AC-3 ,448 Kbps, 6 channels Язык Японский
Субтитры: Нет
GeneralComplete name : D:\Films\Keroro\Movie 1\VIDEO_TS\VTS_01_1.VOBFormat : MPEG-PSFile size : 1 024 MiBDuration : 15mn 50sOverall bit rate mode : VariableOverall bit rate : 9 030 Kbps

VideoID : 224 (0xE0)Format : MPEG VideoFormat version : Version 2Format profile : Main@MainFormat settings, BVOP : YesFormat settings, Matrix : CustomFormat settings, GOP : VariableDuration : 15mn 50sBit rate mode : VariableBit rate : 8 018 KbpsMaximum bit rate : 9 800 KbpsWidth : 720 pixelsHeight : 480 pixelsDisplay aspect ratio : 16:9Frame rate : 23.976 fpsColor space : YUVChroma subsampling : 4:2:0Bit depth : 8 bitsScan type : ProgressiveScan order : 2:3 PulldownCompression mode : LossyBits/(Pixel*Frame) : 0.968Time code of first frame : 01:00:11:00Time code source : Group of pictures headerStream size : 909 MiB (89%)

Audio #1ID : 189 (0xBD)-128 (0x80)Format : AC-3Format/Info : Audio Coding 3Mode extension : CM (complete main)Format settings, Endianness : BigMuxing mode : DVD-VideoDuration : 15mn 50sBit rate mode : ConstantBit rate : 384 KbpsChannel(s) : 6 channelsChannel positions : Front: L C R, Side: L R, LFESampling rate : 48.0 KHzCompression mode : LossyStream size : 43.5 MiB (4%)

Audio #2ID : 189 (0xBD)-129 (0x81)Format : AC-3Format/Info : Audio Coding 3Mode extension : CM (complete main)Format settings, Endianness : BigMuxing mode : DVD-VideoDuration : 15mn 50sBit rate mode : ConstantBit rate : 448 KbpsChannel(s) : 6 channelsChannel positions : Front: L C R, Side: L R, LFESampling rate : 48.0 KHzCompression mode : LossyStream size : 50.8 MiB (5%)

Menu


Трекер:  [ 05-Мар-2016 14:30 ]

  

Скачать .torrent

Размер .torrent файла 12 KB


Размер: 4.36 GB
Хэш (hash) релиза: a88176260b62c31571bbed5f648f14ff80320721
Подписка на обновления:

Еще никто не оставлял запись к записи скачать торрент Сержант Кэроро . Будь первым!

!Обратная связь