Скачать через торрент Трепещущие воспоминания Tokimeki Memorial: Only Love бесплатно Аниме Все серии на русском torrent

Если у вас наблюдаются проблемы со скриншотами, переходом по ссылками, скачиванием торрентов - проблемы в блокировщике рекламы AdBlock. #хорошегоДня!


Статистика раздачи
Размер:  23.63 GB   |    Зарегистрирован:  1 год 5 месяцев   |    .torrent скачан:  50 раз   |   
Раздают:  1  
   
Загрузка...
 
Автор Сообщение

Galfimbul

avatar Galfimbul


Трепещущие воспоминания / Tokimeki Memorial: Only Love

Страна: Япония
Год выпуска: 2006 г.
Жанр: комедия, романтика, школа
Тип: TV
Продолжительность: 25 эп, ~25 мин. серия
Режиссер: Такамото Нобухиро

Описание: Отца Рику Аобы перевели по службе, и Аобе-куну пришлось сменить школу. И вот – первый день учебы на новом месте. Сперва всё выглядит очень даже приемлемым: новое, богато оснащенное здание, молодая приветливая классная, радушная встреча одноклассников и совершенно очаровательная староста Амамия-сан! Но с каждым уроком и каждой переменой у новенького накапливается недоумение: зачем секретарь директора (фигуристая тетка в прикиде секс-бомбы) так напирает на то, что девиз их школы «Свобода во всем»? Для чего половина учеников носит всевозможные «ушки»? Где попечители набрали таких небанальных учителей – чахоточного литератора, маниакального физика и трансвестита-музыканта? И, наконец, почему президент студенческого совета презентовал ему особо трогательный кошачий комплект, и отчего вся школа, точно с цепи сорвавшись, ринулась ловить его, ни в чем не разобравшегося Аобу-куна?..

© Анастасия Розанова, World Art

Доп. информация: Качество TV-Rip. Перевод с английского и озвучивание от "Девушки" из Project JD по заказу компании Animegroup в 2007 году.

Качество: DVD5
Формат экрана: 16:9
Система / Разрешение: NTSC (720x480)
Средний битрейт: 5 261 Kbps
Аудио: AC-3, 192 Kbps, 2 channels Язык Японский
Аудио 2: AC-3, 192 Kbps, 2 channels Язык Русский
Язык субтитров: русский
GeneralComplete name : D:\Films\Tokimeki Memorial\1\VIDEO_TS\VTS_02_1.VOBFormat : MPEG-PSFile size : 1 020 MiBDuration : 24mn 45sOverall bit rate mode : VariableOverall bit rate : 5 759 Kbps

VideoID : 224 (0xE0)Format : MPEG VideoFormat version : Version 2Format profile : Main@MainFormat settings, BVOP : YesFormat settings, Matrix : DefaultFormat settings, GOP : M=3, N=15Format settings, picture st : FrameDuration : 24mn 45sBit rate mode : VariableBit rate : 5 261 KbpsMaximum bit rate : 8 000 KbpsWidth : 720 pixelsHeight : 480 pixelsDisplay aspect ratio : 16:9Frame rate : 29.970 fpsStandard : NTSCColor space : YUVChroma subsampling : 4:2:0Bit depth : 8 bitsScan type : InterlacedScan order : Bottom Field FirstCompression mode : LossyBits/(Pixel*Frame) : 0.508Time code of first frame : 00:00:00:00Time code source : Group of pictures headerGOP, Open/Closed : OpenGOP, Open/Closed of first f : ClosedStream size : 931 MiB (91%)

Audio #1ID : 189 (0xBD)-128 (0x80)Format : AC-3Format/Info : Audio Coding 3Mode extension : CM (complete main)Format settings, Endianness : BigMuxing mode : DVD-VideoDuration : 24mn 44sBit rate mode : ConstantBit rate : 192 KbpsChannel(s) : 2 channelsChannel positions : Front: L RSampling rate : 48.0 KHzCompression mode : LossyStream size : 34.0 MiB (3%)

Audio #2ID : 189 (0xBD)-129 (0x81)Format : AC-3Format/Info : Audio Coding 3Mode extension : CM (complete main)Format settings, Endianness : BigMuxing mode : DVD-VideoDuration : 24mn 44sBit rate mode : ConstantBit rate : 192 KbpsChannel(s) : 2 channelsChannel positions : Front: L RSampling rate : 48.0 KHzCompression mode : LossyStream size : 34.0 MiB (3%)

Menu


Трекер:  [ 05-Мар-2016 00:00 ]

  

Скачать .torrent

Размер .torrent файла 67 KB


Размер: 23.63 GB
Хэш (hash) релиза: e526c605888f32ac96c2276cc2bf6f6aa41f45e9
Подписка на обновления:

Еще никто не оставлял запись к записи скачать торрент Трепещущие воспоминания Tokimeki Memorial: Only Love . Будь первым!

!Обратная связь