Скачать порно через торрент с 23 февраля UnionPeer.org бесплатно онлайн HD качество

Скачать новое порно 2015, 2014 новинки через торрент UnionPeer.org

Порно торрент бесплатно ЮнионПир.орг

Если у вас наблюдаются проблемы со скриншотами, переходом по ссылками, скачиванием торрентов - проблемы в блокировщике рекламы AdBlock. #хорошегоДня!


Статистика раздачи
Размер:  281 MB   |    Зарегистрирован:  1 год 7 месяцев   |    .torrent скачан:  1088 раз   |   
Раздают:  1  
   
Загрузка...
 
Автор Сообщение

Galfimbul

avatar Galfimbul


с 23 февраля

Год производства: 2016 г.
Жанр: Amateur.Big Boobs.Reality.Russian Girls.Solo.
Продолжительность: 00:07:49

Описание: Подарок на 23 февраля от полной девушки Светы
General
Complete name : E:bandicam 2016-02-23 17-38-43-949.mp4
Format : MPEG-4
Format profile : Base Media
Codec ID : isom
File size : 281 MiB
Duration : 7mn 49s
Overall bit rate mode : Variable
Overall bit rate : 5 021 Kbps
Encoded date : UTC 2015-12-23 14:38:44
Tagged date : UTC 2015-12-23 14:38:44
Writing application : BandiMp4Muxer 1.0
Video #1
ID : 1
Format : AVC
Format/Info : Advanced Video Codec
Format profile : Main@L4.0
Format settings, CABAC : Yes
Format settings, ReFrames : 1 frame
Codec ID : avc1
Codec ID/Info : Advanced Video Coding
Duration : 7mn 49s
Bit rate : 4 838 Kbps
Width : 1 920 pixels
Height : 1 080 pixels
Display aspect ratio : 16:9
Frame rate mode : Variable
Frame rate : 19.298 fps
Original frame rate : 30.000 fps
Minimum frame rate : 5.999 fps
Maximum frame rate : 30.030 fps
Color space : YUV
Chroma subsampling : 4:2:0
Bit depth : 8 bits
Scan type : Progressive
Bits/(Pixel*Frame) : 0.121
Stream size : 271 MiB (96%)
Language : English
Encoded date : UTC 2015-12-23 14:38:44
Tagged date : UTC 2015-12-23 14:38:44
Audio #2
ID : 2
Format : AAC
Format/Info : Advanced Audio Codec
Format profile : LC
Codec ID : 40
Duration : 7mn 48s
Duration_LastFrame : -19ms
Bit rate mode : Variable
Bit rate : 178 Kbps
Maximum bit rate : 279 Kbps
Channel(s) : 2 channels
Channel positions : Front: L R
Sampling rate : 48.0 KHz
Compression mode : Lossy
Stream size : 9.98 MiB (4%)
Language : English
Encoded date : UTC 2015-12-23 14:38:44
Tagged date : UTC 2015-12-23 14:38:44
Качество видео: WebCam
Формат видео: MP4
Видео: MPEG4 Video (H264) 1920x1080 19.298fps [VideoHandler - MPEG4 Video (H264)]
Аудио: AAC 48000Hz stereo 178kbps [SoundHandler - MPEG-4 Audio]

Трекер:  [ 05-Мар-2016 00:30 ]

  

Скачать .torrent

Размер .torrent файла 11 KB


Размер: 281 MB
Хэш (hash) релиза: deab6e8a6961df83b6ddcdb49787dfec24086e16

Еще никто не оставлял запись к записи скачать торрент с 23 февраля . Будь первым!

!Обратная связь