Скачать через торрент Щелкунчик Китаро Gegege no Kitarou бесплатно Аниме Все серии на русском torrent

Если у вас наблюдаются проблемы со скриншотами, переходом по ссылками, скачиванием торрентов - проблемы в блокировщике рекламы AdBlock. #хорошегоДня!


Статистика раздачи
Размер:  1.48 GB   |    Зарегистрирован:  1 год 7 месяцев   |    .torrent скачан:  46 раз   |   
Раздают:  1  
   
Загрузка...
 
Автор Сообщение

Galfimbul

avatar Galfimbul


Щелкунчик Китаро / Gegege no Kitarou

Страна: Япония
Год выпуска: 1985 г.
Жанр: приключения, комедия, сказка
Тип: Movie
Продолжительность: 24 мин.
Режиссер: Сирато Такэси

Описание: As civilization advances, people are beginning to lose the consideration and kindliness for Nature. This has incurred the wrath of the ghosts who are becoming increasingly unhappy with the selfishness of the human kind. However, there is a conflict of interests within the ghosts in which one extreme opposes the humans completely while another extreme desires the co-existence of humans and ghosts. Kitaro and his family belongs to the latter category and yearns to seek mutual understanding between the humans and ghosts. Kitaro's fight for love and hope continues.
Источник: ANN

Доп. информация: Японское издание. Перевод с японского и озвучивание - Юки Нацуи по заказу компании Animegroup в 2008 году.

Качество: DVD5
Формат экрана: 16:9
Система / Разрешение: NTSC (720x480)
Средний битрейт: 7 305 Kbps
Аудио: AC-3, 192 Kbps, 2 channels Язык Русский
Аудио 2: AC-3, 384 Kbps, 2 channels Язык Японский
Субтитры: Нет
GeneralComplete name : D:\Films\GEGEGE NO KITARO MOVIE1 1985\GEGEGE NO KITARO MOVIE1 1985\VIDEO_TS\VTS_01_1.VOBFormat : MPEG-PSFile size : 1 024 MiBDuration : 17mn 47sOverall bit rate mode : VariableOverall bit rate : 8 041 Kbps

VideoID : 224 (0xE0)Format : MPEG VideoFormat version : Version 2Format profile : Main@MainFormat settings, BVOP : YesFormat settings, Matrix : CustomFormat settings, GOP : VariableDuration : 17mn 47sBit rate mode : VariableBit rate : 7 305 KbpsMaximum bit rate : 9 800 KbpsWidth : 720 pixelsHeight : 480 pixelsDisplay aspect ratio : 16:9Frame rate : 23.976 fpsColor space : YUVChroma subsampling : 4:2:0Bit depth : 8 bitsScan type : ProgressiveScan order : 2:3 PulldownCompression mode : LossyBits/(Pixel*Frame) : 0.882Time code of first frame : 01:00:34:00Time code source : Group of pictures headerGOP, Open/Closed : OpenGOP, Open/Closed of first f : ClosedStream size : 930 MiB (91%)

Audio #1ID : 189 (0xBD)-128 (0x80)Format : AC-3Format/Info : Audio Coding 3Mode extension : CM (complete main)Format settings, Endianness : BigMuxing mode : DVD-VideoDuration : 17mn 47sBit rate mode : ConstantBit rate : 192 KbpsChannel(s) : 2 channelsChannel positions : Front: L RSampling rate : 48.0 KHzCompression mode : LossyStream size : 24.4 MiB (2%)

Audio #2ID : 189 (0xBD)-129 (0x81)Format : AC-3Format/Info : Audio Coding 3Mode extension : CM (complete main)Format settings, Endianness : BigMuxing mode : DVD-VideoDuration : 17mn 47sBit rate mode : ConstantBit rate : 384 KbpsChannel(s) : 2 channelsChannel positions : Front: L RSampling rate : 48.0 KHzCompression mode : LossyStream size : 48.9 MiB (5%)

Menu


Трекер:  [ 02-Мар-2016 21:00 ]

  

Скачать .torrent

Размер .torrent файла 16 KB


Размер: 1.48 GB
Хэш (hash) релиза: 6f5bb31f488a6f9352cd19d63dcc45773852d95a
Подписка на обновления:

Торренты, похожие на Щелкунчик Китаро Gegege no Kitarou скачать торрент

Форум Название Автор Размер S L Добавлен
Аниме | Rips ·· Щелкунчик Китаро / Gegege no Kitarou [TV] [13 из 65] [Без хардсаба] [JAP, SUB] [1968 г., приключения, комедия, сказка, DVDRip] Galfimbul 28335655252.64 GB 0 0 1409054768

15:06

26-Авг-14

Аниме | DVD ·· Щелкунчик Китаро - Фильм (1986, весна) / Gegege no Kitarou: Youkai Taisen Arasou [Movie] [RUS, JAP] [1986 г., приключения, комедия, сказка] [DVD5] Galfimbul 23773388802.21 GB 0 0 1457724158

22:22

11-Мар-16

Еще никто не оставлял запись к записи скачать торрент Щелкунчик Китаро Gegege no Kitarou . Будь первым!

!Обратная связь