Скачать через торрент Нейро Ногами - детектив из ада Majin Tantei Nougami Neuro бесплатно Аниме Все серии на русском torrent

Если у вас наблюдаются проблемы со скриншотами, переходом по ссылками, скачиванием торрентов - проблемы в блокировщике рекламы AdBlock. #хорошегоДня!


Статистика раздачи
Размер:  25.48 GB   |    Зарегистрирован:  1 год 7 месяцев   |    .torrent скачан:  43 раза   |   
Раздают:  1  
   
Загрузка...
 
Автор Сообщение

Galfimbul

avatar Galfimbul


Нейро Ногами - детектив из ада / Majin Tantei Nougami Neuro

Страна: Япония
Год выпуска: 2007 г.
Жанр: комедия, мистика, детектив
Тип: TV
Продолжительность: 25 эп, ~25 мин. серия
Режиссер: Кодзина Хироси

Описание: Нейро Ногами — демон, который питается загадками. Поглотив их все в своём мире, в Аду, он отправляется на Землю, чтобы отыскать там самую захватывающую и «вкусную» загадку. Он находит девочку по имени Яко Кацураги, у которой погиб отец. Полиция утверждала, что это было самоубийство, хотя Яко была абсолютно уверена, что это не так. Нейро предлагает девочке сделку: если та будет помогать ему находить и распутывать загадки, то он поможет раскрыть убийство её отца. Вместе они организовывают детективное агентство.

Яко задаётся вопросом, почему Нейро выбрал именно её в качестве помощника и доверенного лица, ведь именно ей достаётся вся слава. Демону же нужны лишь загадки, чтобы утолять свой голод, так как в потустороннем мире раскрытая загадка высвобождается из её владельца в виде огромного количества негативной энергии, которой Нейро и питается..
World-Art

Доп. информация: Качество TV-Rip. Перевод с английского и озвучивание от "Девушки" из Project JD по заказу компании Animegroup в 2008 году.

Качество: DVD5
Формат экрана: 16:9
Система / Разрешение: NTSC (720x480)
Средний битрейт: 4 811 Kbps
Аудио: AC-3, 192 Kbps, 2 channels Язык Японский
Аудио 2: PCM, 1 536 Kbps, 2 channels Язык Русский
Язык субтитров: русский
GeneralComplete name : D:\Films\Neuro Nogami\1\VIDEO_TS\VTS_03_1.VOBFormat : MPEG-PSFile size : 1 024 MiBDuration : 21mn 27sOverall bit rate mode : VariableOverall bit rate : 6 671 Kbps

VideoID : 224 (0xE0)Format : MPEG VideoFormat version : Version 2Format profile : Main@MainFormat settings, BVOP : YesFormat settings, Matrix : DefaultFormat settings, GOP : M=3, N=15Format settings, picture st : FrameDuration : 21mn 27sBit rate mode : VariableBit rate : 4 811 KbpsMaximum bit rate : 8 000 KbpsWidth : 720 pixelsHeight : 480 pixelsDisplay aspect ratio : 16:9Frame rate : 29.970 fpsStandard : NTSCColor space : YUVChroma subsampling : 4:2:0Bit depth : 8 bitsScan type : InterlacedScan order : Bottom Field FirstCompression mode : LossyBits/(Pixel*Frame) : 0.464Time code of first frame : 00:00:00:00Time code source : Group of pictures headerGOP, Open/Closed : OpenGOP, Open/Closed of first f : ClosedStream size : 738 MiB (72%)

Audio #1ID : 189 (0xBD)-128 (0x80)Format : AC-3Format/Info : Audio Coding 3Mode extension : CM (complete main)Format settings, Endianness : BigMuxing mode : DVD-VideoDuration : 21mn 27sBit rate mode : ConstantBit rate : 192 KbpsChannel(s) : 2 channelsChannel positions : Front: L RSampling rate : 48.0 KHzCompression mode : LossyStream size : 29.5 MiB (3%)

Audio #2ID : 189 (0xBD)-161 (0xA1)Format : PCMFormat settings, Endianness : BigFormat settings, Sign : SignedMuxing mode : DVD-VideoDuration : 21mn 27sBit rate mode : ConstantBit rate : 1 536 KbpsChannel(s) : 2 channelsSampling rate : 48.0 KHzBit depth : 16 bitsStream size : 236 MiB (23%)

Text #1ID : 189 (0xBD)-33 (0x21)Format : RLEFormat/Info : Run-length encodingMuxing mode : DVD-VideoDuration : 21mn 24sDelay relative to video : 1s 919ms

Text #2ID : 189 (0xBD)-34 (0x22)Format : RLEFormat/Info : Run-length encodingMuxing mode : DVD-VideoDuration : 21mn 24sDelay relative to video : 1s 919ms

Menu


Трекер:  [ 02-Мар-2016 21:00 ]

  

Скачать .torrent

Размер .torrent файла 72 KB


Размер: 25.48 GB
Хэш (hash) релиза: 47d63509fc5c72e20133d9510d634bbbc0a32654
Подписка на обновления:

Еще никто не оставлял запись к записи скачать торрент Нейро Ногами - детектив из ада Majin Tantei Nougami Neuro . Будь первым!

!Обратная связь