Скачать через торрент На север за алмазной пылью Diamond Daydreams бесплатно Аниме Все серии на русском torrent

Если у вас наблюдаются проблемы со скриншотами, переходом по ссылками, скачиванием торрентов - проблемы в блокировщике рекламы AdBlock. #хорошегоДня!


Статистика раздачи
Размер:  17.34 GB   |    Зарегистрирован:  1 год 7 месяцев   |    .torrent скачан:  62 раза   |   
Раздают:  1  
   
Загрузка...
 
Автор Сообщение

Galfimbul

avatar Galfimbul


На север за алмазной пылью / Diamond Daydreams / Diamond Dust Drops

Страна: Япония
Год выпуска: 2004 г.
Жанр: повседневность, романтика, драма
Тип: TV
Продолжительность: 12 эп. + спэшл, 25 мин.
Режиссер: Сирахата Боб
Описание: Жизнь шести девушек – продавщицы рыбной лавки Ацуко, фигуристки Суоми, режиссера-любителя Кёко, школьниц Акари и Карин, радиоведущей Сёко – на острове Хоккайдо. Их надежды и страхи, амбиции и фантазии, разочарования и влюбленности... И объединяющая их всех мечта увидеть «алмазную пыль», особого рода снежинки, которые прочат всем верную и счастливую любовь.

Шесть отдельных историй и седьмая, где героини мимолетно встречаются в самом сердце Хоккайдо, в прекрасном заснеженном Саппоро.

© Анастасия Розанова, World Art

Доп. информация: Американское издание. Перевод с английского и озвучивание от "Девушки" из Project JD по заказу компании Animegroup в 2007 году. На дисках есть английский дубляж и много дополнительных материалов с английскими субтитрами. Спэшл переведён на русский и находится на 2 диске.

Качество: DVD5
Формат экрана: 4:3
Система / Разрешение: NTSC (720x480)
Средний битрейт: 5 593 Kbps
Аудио: AC-3, 192 Kbps, 2 channels Язык Русский
Аудио 2: AC-3, 224 Kbps, 2 channels Язык Японский
Аудио 3: AC-3, 224 Kbps, 2 channels Язык Английский
Язык субтитров: русский, английский
GeneralComplete name : D:\Films\Diamond Daydreams\3\VIDEO_TS\VTS_02_1.VOBFormat : MPEG-PSFile size : 1 024 MiBDuration : 22mn 30sOverall bit rate mode : VariableOverall bit rate : 6 359 Kbps

VideoID : 224 (0xE0)Format : MPEG VideoFormat version : Version 2Format profile : Main@MainFormat settings, BVOP : YesFormat settings, Matrix : CustomFormat settings, GOP : M=3, N=12Format settings, picture st : FrameDuration : 22mn 30sBit rate mode : VariableBit rate : 5 593 KbpsMaximum bit rate : 8 900 KbpsWidth : 720 pixelsHeight : 480 pixelsDisplay aspect ratio : 4:3Frame rate : 29.970 fpsStandard : NTSCColor space : YUVChroma subsampling : 4:2:0Bit depth : 8 bitsScan type : InterlacedScan order : Top Field FirstCompression mode : LossyBits/(Pixel*Frame) : 0.540Time code of first frame : 00:59:59:19Time code source : Group of pictures headerGOP, Open/Closed : ClosedStream size : 901 MiB (88%)

Audio #1ID : 189 (0xBD)-128 (0x80)Format : AC-3Format/Info : Audio Coding 3Mode extension : CM (complete main)Format settings, Endianness : BigMuxing mode : DVD-VideoDuration : 22mn 30sBit rate mode : ConstantBit rate : 192 KbpsChannel(s) : 2 channelsChannel positions : Front: L RSampling rate : 48.0 KHzCompression mode : LossyStream size : 30.9 MiB (3%)

Audio #2ID : 189 (0xBD)-129 (0x81)Format : AC-3Format/Info : Audio Coding 3Mode extension : CM (complete main)Format settings, Endianness : BigMuxing mode : DVD-VideoDuration : 22mn 30sBit rate mode : ConstantBit rate : 224 KbpsChannel(s) : 2 channelsChannel positions : Front: L RSampling rate : 48.0 KHzCompression mode : LossyStream size : 36.1 MiB (4%)

Audio #3ID : 189 (0xBD)-130 (0x82)Format : AC-3Format/Info : Audio Coding 3Mode extension : CM (complete main)Format settings, Endianness : BigMuxing mode : DVD-VideoDuration : 22mn 30sBit rate mode : ConstantBit rate : 224 KbpsChannel(s) : 2 channelsChannel positions : Front: L RSampling rate : 48.0 KHzCompression mode : LossyStream size : 36.1 MiB (4%)

Text #1ID : 189 (0xBD)-32 (0x20)Format : RLEFormat/Info : Run-length encodingMuxing mode : DVD-VideoDuration : 22mn 25sDelay relative to video : 1s 101ms

Text #2ID : 189 (0xBD)-34 (0x22)Format : RLEFormat/Info : Run-length encodingMuxing mode : DVD-VideoDuration : 22mn 25sDelay relative to video : 1s 67ms

Text #3ID : 189 (0xBD)-33 (0x21)Format : RLEFormat/Info : Run-length encodingMuxing mode : DVD-Video

Menu


Трекер:  [ 02-Мар-2016 00:00 ]

  

Скачать .torrent

Размер .torrent файла 56 KB


Размер: 17.34 GB
Хэш (hash) релиза: ab8fc10cd2f03c5128463939b7e2422bba09d1f5
Подписка на обновления:

Торренты, похожие на На север за алмазной пылью Diamond Daydreams скачать торрент

Форум Название Автор Размер S L Добавлен
Аниме | Rips ·· На север за алмазной пылью / Diamond Daydreams / To the North ~Diamond Dust Drops~ (Сирохата Боб) [2004 г., драма, романтика, повседневность, DVDRip] Aiser 35676460423.32 GB 0 0 1362132406

13:06

1-Мар-13

Еще никто не оставлял запись к записи скачать торрент На север за алмазной пылью Diamond Daydreams . Будь первым!

!Обратная связь