Скачать через торрент Феромон любви Zettai Seigi Love Pheromone бесплатно Аниме Все серии на русском torrent

Если у вас наблюдаются проблемы со скриншотами, переходом по ссылками, скачиванием торрентов - проблемы в блокировщике рекламы AdBlock. #хорошегоДня!


Статистика раздачи
Размер:  23.28 GB   |    Зарегистрирован:  1 год 5 месяцев   |    .torrent скачан:  58 раз   |   
Раздают:  1  
   
Загрузка...
 
Автор Сообщение

Galfimbul

avatar Galfimbul


Феромон любви / Zettai Seigi Love Pheromone / Absolute Justice Love Pheromone

Страна: Япония
Год выпуска: 2005 г.
Жанр: комедия, пародия, махо-сёдзё
Тип: TV
Продолжительность: 13 эп, ~25 мин. серия
Озвучивание: Юки Нацуи (Animegroup)
Режиссер: Мацуи Хитоюки
Описание: Аюми и Каороку – начинающие актрисы разговорного жанра. Они мечтают покорить Голливуд (а для начала - выиграть хоть один самодеятельный конкурс). Но это не единственная цель в их жизни. Дело в том, что девушки – потомки инопланетян, делегированных на Землю Объединенным Советом Галактики. Их миссия – восстановление Абсолютной Справедливости. Они – «Феромоны Любви», непобедимые и неумолимые воины Добра и Справедливости. А ради добра и справедливости они готовы на всё: им не жаль заложников, их не смущают издержки и не останавливает трусливая гуманность. Зло будет наказано – во что бы это ни стало окружающим!

© Анастасия Розанова, World Art

Доп. информация: Японское издание. Перевод с японского и озвучивание - Юки Нацуи по заказу компании Animegroup в 2006 году.

Качество: DVD5
Формат экрана: 4:3
Система / Разрешение: NTSC (720x480)
Средний битрейт: 8699
Аудио: AC-3, 192 Kbps, 2 channels Язык Русский
Аудио 2: AC-3, 224 Kbps, 2 channels Язык Японский (комментарии сейю)
Аудио 3: AC-3, 224 Kbps, 2 channels Язык Японский
Субтитры: Нет
GeneralComplete name : D:\Films\Love Pheromone\LOVE GE LOVE PHEROMONE 01\VIDEO_TS\VTS_02_1.VOBFormat : MPEG-PSFile size : 1 024 MiBDuration : 15mn 1sOverall bit rate mode : VariableOverall bit rate : 9 528 Kbps

VideoID : 224 (0xE0)Format : MPEG VideoFormat version : Version 2Format profile : Main@MainFormat settings, BVOP : YesFormat settings, Matrix : CustomFormat settings, GOP : VariableFormat settings, picture st : FrameDuration : 15mn 1sBit rate mode : VariableBit rate : 8 699 KbpsMaximum bit rate : 9 800 KbpsWidth : 720 pixelsHeight : 480 pixelsDisplay aspect ratio : 4:3Frame rate : 29.970 fpsStandard : NTSCColor space : YUVChroma subsampling : 4:2:0Bit depth : 8 bitsScan type : InterlacedScan order : Top Field FirstCompression mode : LossyBits/(Pixel*Frame) : 0.840Time code of first frame : 00:00:00:00Time code source : Group of pictures headerStream size : 935 MiB (91%)

Audio #1ID : 189 (0xBD)-128 (0x80)Format : AC-3Format/Info : Audio Coding 3Mode extension : CM (complete main)Format settings, Endianness : BigMuxing mode : DVD-VideoDuration : 15mn 1sBit rate mode : ConstantBit rate : 192 KbpsChannel(s) : 2 channelsChannel positions : Front: L RSampling rate : 48.0 KHzCompression mode : LossyStream size : 20.6 MiB (2%)

Audio #2ID : 189 (0xBD)-129 (0x81)Format : AC-3Format/Info : Audio Coding 3Mode extension : CM (complete main)Format settings, Endianness : BigMuxing mode : DVD-VideoDuration : 15mn 1sBit rate mode : ConstantBit rate : 224 KbpsChannel(s) : 2 channelsChannel positions : Front: L RSampling rate : 48.0 KHzCompression mode : LossyStream size : 24.1 MiB (2%)

Audio #3ID : 189 (0xBD)-130 (0x82)Format : AC-3Format/Info : Audio Coding 3Mode extension : CM (complete main)Format settings, Endianness : BigMuxing mode : DVD-VideoDuration : 15mn 1sBit rate mode : ConstantBit rate : 224 KbpsChannel(s) : 2 channelsChannel positions : Front: L RSampling rate : 48.0 KHzCompression mode : LossyStream size : 24.1 MiB (2%)

Menu


Трекер:  [ 28-Фев-2016 23:30 ]

  

Скачать .torrent

Размер .torrent файла 66 KB


Размер: 23.28 GB
Хэш (hash) релиза: 19436f4a27d0b4371d42a93230f83963d2dc2b25
Подписка на обновления:

Еще никто не оставлял запись к записи скачать торрент Феромон любви Zettai Seigi Love Pheromone . Будь первым!

!Обратная связь