Скачать через торрент Вселенная: 7 чудес Солнечной системы Фильм бесплатно в хорошем качестве torrent

Скачивайте на UnionPeer.org фильмы через торрент без регистрации. Новинки кино в хорошем качестве через торрент. На UnionPeer.org можно скачать через торрент фильмы 2014 и 2015 годов. Самые новые фильмы.

Скачать торрент Вселенная: 7 чудес Солнечной системы бесплатно через .torrent фильм мультфильм сериал

Если у вас наблюдаются проблемы со скриншотами, переходом по ссылками, скачиванием торрентов - проблемы в блокировщике рекламы AdBlock. #хорошегоДня!


Статистика раздачи
Размер:  5.84 GB   |    Зарегистрирован:  1 год 7 месяцев   |    .torrent скачан:  127 раз   |   
Раздают:  1  
   
Загрузка...
 
Автор Сообщение

Galfimbul

avatar Galfimbul


Вселенная: 7 чудес Солнечной системы (сезон 5, эпизод 1)
Universe: 7 Wonders of the Solar System (s05e01)
Год выпуска: 2010
Страна: США (History Channel, A&E Television Networks, Flight 33 Productions)
Жанр: Документальный, Сериал
Продолжительность: 00:44:06

Перевод: Профессиональный двухголосый закадровый (лицензия) и одноголосый закадровый

Режиссер: Лаура Верклан / Laura Verklan
Научный консультант: Алекс Филиппенко
Эксперты в фильме: Алекс Филиппенко, Laura Danly, Нил Тайсон, Клиффорд Джонсон, Роб Рой Бритт, Amy Mainzer, Доктор Кевин Р. Грейзер, Greg Laughlin, Michelle Thaller
Описание: Наша Вселенная хранит в себе огромное количество тайн, которые волнуют человечество не одно тысячелетие. Далекие планеты и другие галактики зловещие Черные Дыры и Большой Взрыв…
За последние годы современная наука продвинулась далеко вперед в разрешении загадок, остававшихся неподвластными человечеству до недавнего времени. В этом новом научно-популярном фильме, созданном на основе самых свежих научных достижений, открывается неведомый космический мир, где каждый может почувствовать себя космическим исследователем из будущего.
Взгляните ближе на некоторые из самых удивительных чудес нашей Солнечной системы, типа гейзеров Энцелада, удивительных колец Сатурна, Большого Красного Пятна Юпитера и высот горы Олимп на Марсе...
Премьера (мир): 29 июля 2010
. .
За исходные BD 3D спасибо , меценатам и релизёрам!
Качество: BDRip (by Ash61)
Контейнер: MKV
Формат 3D: Half OverUnder / Вертикальная анаморфная стереопара
Порядок ракурсов: левый ракурс первый
Видео: AVC / 23,976 fps / 1920х1080p / 16.7 Mbps

Аудио:
#1 - Русский / AC3 / 48 KHz / 5.1 ch / 640 Kbps (DVO - BD 3D Rus) (Кармен-Видео)
#2 - Русский / AC3 / 48 KHz / 5.1 ch / 640 Kbps (VO - Ю.Сербин)
#3 - Английский / AC3 / 48 KHz / 5.1 ch / 640 Kbps (Original - BD 3D)

Субтитры: Внешние (SRT UTF-8) Русские Полные
General
Unique ID : 238326049610878257423854547353724902438 (0xB34BED73BD958A379A9F0E59B961DC26)
Complete name : E:\TheUniverse.7WondersOfTheSolarSystem(2010)3D-halfOU(Ash61)DVO+VO\TheUniverse.7WondersOfTheSolarSystem(2010)3D-halfOU(Ash61)DVO+VO.mkv
Format : Matroska
Format version : Version 2
File size : 5.84 GiB
Duration : 44mn 5s
Overall bit rate : 19.0 Mbps
Movie name : Вселенная: 7 чудес Солнечной системы (сезон 5 серия 1) / The Universe: 7 Wonders of the Solar System (S05E01) (2010) в 3Д
Encoded date : UTC 2015-12-20 16:24:14
Writing application : mkvmerge v5.8.0 ('No Sleep / Pillow') built on Sep 2 2012 15:37:04
Writing library : libebml v1.2.3 + libmatroska v1.3.0

Video
ID : 1
Format : AVC
Format/Info : Advanced Video Codec
Format profile : High@L4.1
Format settings, CABAC : Yes
Format settings, ReFrames : 4 frames
Codec ID : V_MPEG4/ISO/AVC
Duration : 44mn 5s
Bit rate : 16.7 Mbps
Width : 1 920 pixels
Height : 1 080 pixels
Display aspect ratio : 16:9
Frame rate mode : Constant
Frame rate : 23.976 fps
Color space : YUV
Chroma subsampling : 4:2:0
Bit depth : 8 bits
Scan type : Progressive
Bits/(Pixel*Frame) : 0.335
Stream size : 5.13 GiB (88%)
Title : BDRip by Ash61
Writing library : x264 core 146 r2538 121396c
Encoding settings : cabac=1 / ref=4 / deblock=1:-3:-3 / analyse=0x3:0x113 / me=umh / subme=10 / psy=1 / psy_rd=1.00:0.00 / mixed_ref=1 / me_range=32 / chroma_me=1 / trellis=2 / 8x8dct=1 / cqm=0 / deadzone=21,11 / fast_pskip=1 / chroma_qp_offset=-2 / threads=12 / lookahead_threads=3 / sliced_threads=0 / nr=0 / decimate=1 / interlaced=0 / bluray_compat=0 / constrained_intra=0 / bframes=12 / b_pyramid=2 / b_adapt=2 / b_bias=0 / direct=3 / weightb=1 / open_gop=0 / weightp=2 / keyint=250 / keyint_min=23 / scenecut=40 / intra_refresh=0 / rc_lookahead=60 / rc=crf / mbtree=1 / crf=15.5 / qcomp=0.70 / qpmin=0 / qpmax=69 / qpstep=4 / vbv_maxrate=40000 / vbv_bufsize=30000 / crf_max=0.0 / nal_hrd=none / filler=0 / frame-packing=4 / ip_ratio=1.40 / aq=1:0.70
Language : English
Default : Yes
Forced : No

Audio #1
ID : 2
Format : AC-3
Format/Info : Audio Coding 3
Mode extension : CM (complete main)
Format settings, Endianness : Big
Codec ID : A_AC3
Duration : 44mn 5s
Bit rate mode : Constant
Bit rate : 640 Kbps
Channel(s) : 6 channels
Channel positions : Front: L C R, Side: L R, LFE
Sampling rate : 48.0 KHz
Bit depth : 16 bits
Compression mode : Lossy
Stream size : 202 MiB (3%)
Title : Двухголосый закадровый - BD 3D Rus (Кармен-Видео)
Language : Russian
Default : Yes
Forced : No

Audio #2
ID : 3
Format : AC-3
Format/Info : Audio Coding 3
Mode extension : CM (complete main)
Format settings, Endianness : Big
Codec ID : A_AC3
Duration : 44mn 5s
Bit rate mode : Constant
Bit rate : 640 Kbps
Channel(s) : 6 channels
Channel positions : Front: L C R, Side: L R, LFE
Sampling rate : 48.0 KHz
Bit depth : 16 bits
Compression mode : Lossy
Stream size : 202 MiB (3%)
Title : Одноголосый закадровый - Ю.Сербин
Language : Russian
Default : No
Forced : No

Audio #3
ID : 4
Format : AC-3
Format/Info : Audio Coding 3
Mode extension : CM (complete main)
Format settings, Endianness : Big
Codec ID : A_AC3
Duration : 44mn 5s
Bit rate mode : Constant
Bit rate : 640 Kbps
Channel(s) : 6 channels
Channel positions : Front: L C R, Side: L R, LFE
Sampling rate : 48.0 KHz
Bit depth : 16 bits
Compression mode : Lossy
Stream size : 202 MiB (3%)
Title : Original - BD 3D
Language : English
Default : No
Forced : No

Menu
00:00:00.000 : :1
00:02:36.573 : :2
00:08:38.017 : :3
00:12:51.938 : :4
00:17:05.942 : :5
00:24:51.198 : :6
00:30:00.507 : :7
00:36:23.390 : :8


Трекер:  [ 28-Фев-2016 11:30 ]

  

Скачать .torrent

Размер .torrent файла 30 KB


Размер: 5.84 GB
Хэш (hash) релиза: 144ef6287bd19abc2a59d7ab4512450f6bddcb83
Подписка на обновления:

Еще никто не оставлял запись к записи скачать торрент Вселенная: 7 чудес Солнечной системы . Будь первым!

!Обратная связь