Скачать через торрент музыку Нострадамус Nostradamus бесплатно без регистрации torrent

Если у вас наблюдаются проблемы со скриншотами, переходом по ссылками, скачиванием торрентов - проблемы в блокировщике рекламы AdBlock. #хорошегоДня!


Статистика раздачи
Размер:  417 MB   |    Зарегистрирован:  1 год 7 месяцев   |    .torrent скачан:  17 раз   |   
Раздают:  1  
   
Загрузка...
 
Автор Сообщение

Galfimbul

avatar Galfimbul


Нострадамус / Nostradamus

Жанр: Soundtrack
Композитор: Vitam Venturi
Год выпуска диска: 2007
Год выпуска фильма: 2006
Издатель (лейбл): ZYX
Аудиокодек: FLAC (*.flac)
Тип рипа: tracks+.cue
Битрейт аудио: lossless
Продолжительность: 01:05:59
Источник: найдено в сети
Наличие сканов в содержимом раздачи: нет
Треклист:
1. Nostradamus Theme
2. Diving into Visions
3. Medieval Disease
4. The Queen
5. The Hunting
6. Guillotine
7. The Nostradamus Code
8. Great Conquerors
9. Antichrist
10. "37" Lady Diana
11. Mystic Orient
12. Dreams of a Bright Future
13. Space Travel
14. Death of Nostradamus
15. If We Believe
Exact Audio Copy V1.0 beta 1 from 15. November 2010

EAC extraction logfile from 16. October 2013, 19:58

Vitam Venturi / Nostradamus

Used drive : TSSTcorpCDDVDW SE-208DB Adapter: 1 ID: 0

Read mode : SecureUtilize accurate stream : YesDefeat audio cache : YesMake use of C2 pointers : No

Read offset correction : 6Overread into Lead-In and Lead-Out : NoFill up missing offset samples with silence : YesDelete leading and trailing silent blocks : NoNull samples used in CRC calculations : YesUsed interface : Native Win32 interface for Win NT & 2000Gap handling : Appended to previous track

Used output format : User Defined EncoderSelected bitrate : 128 kBit/sQuality : HighAdd ID3 tag : NoCommand line compressor : C:\Program Files (x86)\Exact Audio Copy\FLAC\FLAC.EXEAdditional command line options : -8 -V -T "ARTIST=%a" -T "TITLE=%t" -T "ALBUM=%g" -T "DATE=%y" -T "TRACKNUMBER=%n" -T "GENRE=%m" -T "COMMENT=%e" %j--picture="%i"%j %s -o %d

TOC of the extracted CD

Track | Start | Length | Start sector | End sector --------------------------------------------------------- 1 | 0:00.00 | 4:37.70 | 0 | 20844 2 | 4:37.70 | 6:37.31 | 20845 | 50650 3 | 11:15.26 | 5:01.00 | 50651 | 73225 4 | 16:16.26 | 5:58.61 | 73226 | 100136 5 | 22:15.12 | 3:46.64 | 100137 | 117150 6 | 26:02.01 | 0:58.29 | 117151 | 121529 7 | 27:00.30 | 6:49.73 | 121530 | 152277 8 | 33:50.28 | 3:10.64 | 152278 | 166591 9 | 37:01.17 | 1:49.41 | 166592 | 174807 10 | 38:50.58 | 4:34.49 | 174808 | 195406 11 | 43:25.32 | 4:20.07 | 195407 | 214913 12 | 47:45.39 | 5:45.13 | 214914 | 240801 13 | 53:30.52 | 4:26.01 | 240802 | 260752 14 | 57:56.53 | 4:24.46 | 260753 | 280598 15 | 62:21.24 | 3:38.30 | 280599 | 296978

Track 1

Filename C:\My Music\Nostradamus\01. Vitam Venturi - Nostradamus Theme.wav

Pre-gap length 0:00:02.00

Peak level 96.6 % Extraction speed 2.3 X Track quality 99.9 % Test CRC A40C4DF4 Copy CRC A40C4DF4 Track not present in AccurateRip database Copy OK

Track 2

Filename C:\My Music\Nostradamus\02. Vitam Venturi - Diving Into Visions.wav

Pre-gap length 0:00:02.00

Peak level 96.6 % Extraction speed 3.3 X Track quality 100.0 % Test CRC D46007B3 Copy CRC D46007B3 Track not present in AccurateRip database Copy OK

Track 3

Filename C:\My Music\Nostradamus\03. Vitam Venturi - Medieval Disease.wav

Pre-gap length 0:00:02.00

Peak level 96.6 % Extraction speed 3.5 X Track quality 100.0 % Test CRC F9ADB684 Copy CRC F9ADB684 Track not present in AccurateRip database Copy OK

Track 4

Filename C:\My Music\Nostradamus\04. Vitam Venturi - The Queen.wav

Pre-gap length 0:00:02.00

Peak level 96.6 % Extraction speed 3.9 X Track quality 100.0 % Test CRC BA683B5E Copy CRC BA683B5E Track not present in AccurateRip database Copy OK

Track 5

Filename C:\My Music\Nostradamus\05. Vitam Venturi - The Hunting.wav

Pre-gap length 0:00:02.00

Peak level 96.6 % Extraction speed 3.9 X Track quality 100.0 % Test CRC CCD563C6 Copy CRC CCD563C6 Track not present in AccurateRip database Copy OK

Track 6

Filename C:\My Music\Nostradamus\06. Vitam Venturi - Guillotine.wav

Pre-gap length 0:00:02.00

Peak level 96.6 % Extraction speed 2.8 X Track quality 100.0 % Test CRC 24BCE1CE Copy CRC 24BCE1CE Track not present in AccurateRip database Copy OK

Track 7

Filename C:\My Music\Nostradamus\07. Vitam Venturi - The Nostradamus Code.wav

Pre-gap length 0:00:02.00

Peak level 96.6 % Extraction speed 4.6 X Track quality 100.0 % Test CRC 82C32181 Copy CRC 82C32181 Track not present in AccurateRip database Copy OK

Track 8

Filename C:\My Music\Nostradamus\08. Vitam Venturi - Great Conquerors.wav

Pre-gap length 0:00:02.00

Peak level 96.6 % Extraction speed 4.3 X Track quality 100.0 % Test CRC 70DB1DE2 Copy CRC 70DB1DE2 Track not present in AccurateRip database Copy OK

Track 9

Filename C:\My Music\Nostradamus\09. Vitam Venturi - Antichrist.wav

Pre-gap length 0:00:02.00

Peak level 96.6 % Extraction speed 4.0 X Track quality 100.0 % Test CRC 5D2F82C6 Copy CRC 5D2F82C6 Track not present in AccurateRip database Copy OK

Track 10

Filename C:\My Music\Nostradamus\10. Vitam Venturi - 37'' Lady Diana.wav

Pre-gap length 0:00:02.00

Peak level 96.6 % Extraction speed 4.7 X Track quality 100.0 % Test CRC C9BB07F7 Copy CRC C9BB07F7 Track not present in AccurateRip database Copy OK

Track 11

Filename C:\My Music\Nostradamus\11. Vitam Venturi - Mystic Orient.wav

Pre-gap length 0:00:02.00

Peak level 96.6 % Extraction speed 4.9 X Track quality 100.0 % Test CRC 8025582E Copy CRC 8025582E Track not present in AccurateRip database Copy OK

Track 12

Filename C:\My Music\Nostradamus\12. Vitam Venturi - Dreams Of A Bright Future.wav

Pre-gap length 0:00:02.00

Peak level 96.6 % Extraction speed 5.0 X Track quality 100.0 % Test CRC 3A3E46DA Copy CRC 3A3E46DA Track not present in AccurateRip database Copy OK

Track 13

Filename C:\My Music\Nostradamus\13. Vitam Venturi - Space Travel.wav

Pre-gap length 0:00:02.00

Peak level 96.6 % Extraction speed 5.2 X Track quality 100.0 % Test CRC D7F96BA2 Copy CRC D7F96BA2 Track not present in AccurateRip database Copy OK

Track 14

Filename C:\My Music\Nostradamus\14. Vitam Venturi - Death Of Nostradamus.wav

Pre-gap length 0:00:02.00

Peak level 96.6 % Extraction speed 5.3 X Track quality 100.0 % Test CRC 8E0CEC7B Copy CRC 8E0CEC7B Track not present in AccurateRip database Copy OK

Track 15

Filename C:\My Music\Nostradamus\15. Vitam Venturi - If We Believe.wav

Pre-gap length 0:00:02.00

Peak level 96.6 % Extraction speed 5.3 X Track quality 100.0 % Test CRC DA03B7C3 Copy CRC DA03B7C3 Track not present in AccurateRip database Copy OK

None of the tracks are present in the AccurateRip database

No errors occurred

End of status report

==== Log checksum 90C7A7EF75643449F0A0864A7040E1304C814C24B5D87CA555A20ADF6102F142 ====
REM DISCID D80F770FREM COMMENT "ExactAudioCopy v1.0b1"PERFORMER "Vitam Venturi"TITLE "Nostradamus"FILE "01. Vitam Venturi - Nostradamus Theme.wav" WAVE TRACK 01 AUDIO TITLE "Nostradamus Theme" PERFORMER "Vitam Venturi" FLAGS DCP INDEX 01 00:00:00 TRACK 02 AUDIO TITLE "Diving Into Visions" PERFORMER "Vitam Venturi" FLAGS DCP INDEX 00 04:35:70FILE "02. Vitam Venturi - Diving Into Visions.wav" WAVE INDEX 01 00:00:00 TRACK 03 AUDIO TITLE "Medieval Disease" PERFORMER "Vitam Venturi" FLAGS DCP INDEX 00 06:35:31FILE "03. Vitam Venturi - Medieval Disease.wav" WAVE INDEX 01 00:00:00 TRACK 04 AUDIO TITLE "The Queen" PERFORMER "Vitam Venturi" FLAGS DCP INDEX 00 04:59:00FILE "04. Vitam Venturi - The Queen.wav" WAVE INDEX 01 00:00:00 TRACK 05 AUDIO TITLE "The Hunting" PERFORMER "Vitam Venturi" FLAGS DCP INDEX 00 05:56:61FILE "05. Vitam Venturi - The Hunting.wav" WAVE INDEX 01 00:00:00 TRACK 06 AUDIO TITLE "Guillotine" PERFORMER "Vitam Venturi" FLAGS DCP INDEX 00 03:44:64FILE "06. Vitam Venturi - Guillotine.wav" WAVE INDEX 01 00:00:00 TRACK 07 AUDIO TITLE "The Nostradamus Code" PERFORMER "Vitam Venturi" FLAGS DCP INDEX 00 00:56:29FILE "07. Vitam Venturi - The Nostradamus Code.wav" WAVE INDEX 01 00:00:00 TRACK 08 AUDIO TITLE "Great Conquerors" PERFORMER "Vitam Venturi" FLAGS DCP INDEX 00 06:47:73FILE "08. Vitam Venturi - Great Conquerors.wav" WAVE INDEX 01 00:00:00 TRACK 09 AUDIO TITLE "Antichrist" PERFORMER "Vitam Venturi" FLAGS DCP INDEX 00 03:08:64FILE "09. Vitam Venturi - Antichrist.wav" WAVE INDEX 01 00:00:00 TRACK 10 AUDIO TITLE "37' Lady Diana" PERFORMER "Vitam Venturi" FLAGS DCP INDEX 00 01:47:41FILE "10. Vitam Venturi - 37'' Lady Diana.wav" WAVE INDEX 01 00:00:00 TRACK 11 AUDIO TITLE "Mystic Orient" PERFORMER "Vitam Venturi" FLAGS DCP INDEX 00 04:32:49FILE "11. Vitam Venturi - Mystic Orient.wav" WAVE INDEX 01 00:00:00 TRACK 12 AUDIO TITLE "Dreams Of A Bright Future" PERFORMER "Vitam Venturi" FLAGS DCP INDEX 00 04:18:07FILE "12. Vitam Venturi - Dreams Of A Bright Future.wav" WAVE INDEX 01 00:00:00 TRACK 13 AUDIO TITLE "Space Travel" PERFORMER "Vitam Venturi" FLAGS DCP INDEX 00 05:43:13FILE "13. Vitam Venturi - Space Travel.wav" WAVE INDEX 01 00:00:00 TRACK 14 AUDIO TITLE "Death Of Nostradamus" PERFORMER "Vitam Venturi" FLAGS DCP INDEX 00 04:24:01FILE "14. Vitam Venturi - Death Of Nostradamus.wav" WAVE INDEX 01 00:00:00 TRACK 15 AUDIO TITLE "If We Believe" PERFORMER "Vitam Venturi" FLAGS DCP INDEX 00 04:22:46FILE "15. Vitam Venturi - If We Believe.wav" WAVE INDEX 01 00:00:00
Vitam Venturi - аудиовизуальный проект из Германии. В 2005 году ограниченным тиражом были выпущены два DVD-релиза "Sakrileg und Geheimnis" и "Zauber der Gregorianik", которые под различными названиями переиздавались позже. Официальные CD-альбомы "Gregorian Visions Vol.1-3" и "Mystic Moods" были изданы в июне 2008 года.

Всю музыку для проекта пишут композиторы Ben Hatten и Marty Stone, известные своим саундтреком к документальному фильму "Nostradamus" (реж. J.A.Nossem), вышедшим в апреле 2006 года.

Так же Vitam Venturi известны под названиями Cantus Firmus, Gregorian Mystic Project, Gregorian Music Orchestra.


Трекер:  [ 22-Фев-2016 12:30 ]

  

Скачать .torrent

Размер .torrent файла 18 KB


Размер: 417 MB
Хэш (hash) релиза: 2043174a2c0d019375b9b29d27bd35097b184b2e

Еще никто не оставлял запись к записи скачать торрент Нострадамус Nostradamus . Будь первым!

!Обратная связь