Скачать через торрент музыку Кэрол Carol бесплатно без регистрации torrent

Если у вас наблюдаются проблемы со скриншотами, переходом по ссылками, скачиванием торрентов - проблемы в блокировщике рекламы AdBlock. #хорошегоДня!


Статистика раздачи
Размер:  220 MB   |    Зарегистрирован:  1 год 6 месяцев   |    .torrent скачан:  12 раз   |   
Раздают:  1  
   
Загрузка...
 
Автор Сообщение

Galfimbul

avatar Galfimbul


Кэрол / Carol
Жанр: Score / Soundtrack
Композитор: Carter Burwell
Год выпуска диска: 2015
Производитель диска: USA
Издатель (лейбл): Varèse Sarabande
Номер по каталогу: 302 067 380 8
Аудиокодек: FLAC (*.flac)
Тип рипа: tracks+.cue
Битрейт аудио: lossless
Продолжительность: 00:53:22
Источник: lztr.us / minimuma
Наличие сканов в содержимом раздачи: только обложка
1. Opening (02:13)
2. Taxi (01:43)
3. To Carol's (01:39)
4. One Mint Julep (02:26)
Perfomed by The Clovers. Music and lyrics by Rudy Toombs
5. Datebook (00:52)
6. Christmas Trees (02:19)
7. Easy Living (03:02)
Perfomed by Billie Holiday and Teddy Wilson. Music and lyrics by Ralph Raigen and Leo Robin
8. The Train (02:30)
9. Packing (01:10)
10. Drive into Night (00:52)
11. Kiss of Fire (02:25)
Perfomed by Georgia Gibbs. Music and lyrics by Lester Allen and Robert Hill
12. Waterloo (00:40)
13. Lovers (02:40)
14. Gun (03:06)
15. Smoke Rings (02:56)
Perfomed by Les Paul and Mary Ford. Music and lyrics by H. Eugene Gifford and Ned Washington
16. Over There (01:12)
17. Visitation (01:29)
18. To Court (01:01)
19. Letter (03:25)
20. No Other Love (02:57)
Perfomed by Jo Stafford. Music and lyrics by Bob Russell and Paul Weston
21. The Times (02:16)
22. Reflections (01:18)
23. Crossing (01:30)
24. You Belong to Me (02:53)
Perfomed by Helen Foster and The Rovers. Music and lyrics by Pee Wee King, Chilton Price and Redd Stewart
25. The End (03:53)
Exact Audio Copy V1.1 from 23. June 2015

EAC extraction logfile from 26. November 2015, 22:54

Carter Burwell / Carol (Original Motion Picture Soundtrack)

Used drive : MATSHITADVD-RAM UJ8D1 Adapter: 1 ID: 0

Read mode : SecureUtilize accurate stream : YesDefeat audio cache : YesMake use of C2 pointers : No

Read offset correction : 6Overread into Lead-In and Lead-Out : NoFill up missing offset samples with silence : YesDelete leading and trailing silent blocks : NoNull samples used in CRC calculations : YesUsed interface : Native Win32 interface for Win NT & 2000Gap handling : Appended to previous track

Used output format : User Defined EncoderSelected bitrate : 1024 kBit/sQuality : HighAdd ID3 tag : NoCommand line compressor : C:\Users\woahitsjuanito\Desktop\flac-1.3.1-win\win64\flac.exeAdditional command line options : -8 -V -T "ARTIST=%artist%" -T "TITLE=%title%" -T "ALBUM=%albumtitle%" -T "DATE=%year%"-T "TRACKNUMBER=%tracknr%" -T "GENRE=%genre%" -T "PERFORMER=%albuminterpret%" -T "COMPOSER=%composer%"%haslyrics%--tag-from-file=LYRICS="%lyricsfile%"%haslyrics% -T "ALBUMARTIST=%albumartist%" -T "DISCNUMBER=%cdnumber%" -T "TOTALDISCS=%totalcds%"-T "TOTALTRACKS=%numtracks%" -T "COMMENT=%comment%" %source% -o %dest%

TOC of the extracted CD

Track | Start | Length | Start sector | End sector --------------------------------------------------------- 1 | 0:00.20 | 2:15.45 | 20 | 10189 2 | 2:15.65 | 1:45.60 | 10190 | 18124 3 | 4:01.50 | 1:39.67 | 18125 | 25616 4 | 5:41.42 | 2:29.01 | 25617 | 36792 5 | 8:10.43 | 0:54.74 | 36793 | 40916 6 | 9:05.42 | 2:21.15 | 40917 | 51506 7 | 11:26.57 | 3:04.57 | 51507 | 65363 8 | 14:31.39 | 2:32.36 | 65364 | 76799 9 | 17:04.00 | 1:11.56 | 76800 | 82180 10 | 18:15.56 | 0:53.55 | 82181 | 86210 11 | 19:09.36 | 2:27.70 | 86211 | 97305 12 | 21:37.31 | 0:42.14 | 97306 | 100469 13 | 22:19.45 | 2:42.00 | 100470 | 112619 14 | 25:01.45 | 3:07.45 | 112620 | 126689 15 | 28:09.15 | 2:57.47 | 126690 | 140011 16 | 31:06.62 | 1:14.13 | 140012 | 145574 17 | 32:21.00 | 1:31.18 | 145575 | 152417 18 | 33:52.18 | 1:03.27 | 152418 | 157169 19 | 34:55.45 | 3:26.67 | 157170 | 172686 20 | 38:22.37 | 3:00.08 | 172687 | 186194 21 | 41:22.45 | 2:17.53 | 186195 | 196522 22 | 43:40.23 | 1:19.47 | 196523 | 202494 23 | 44:59.70 | 1:31.57 | 202495 | 209376 24 | 46:31.52 | 2:55.60 | 209377 | 222561 25 | 49:27.37 | 3:53.37 | 222562 | 240073

Track 1

Filename C:\EAC Rips\01 - Carter Burwell - Opening.wav

Pre-gap length 0:00:02.26

Peak level 98.8 % Extraction speed 1.0 X Track quality 100.0 % Test CRC 25B67AD3 Copy CRC 25B67AD3 Track not present in AccurateRip database Copy OK

Track 2

Filename C:\EAC Rips\02 - Carter Burwell - Taxi.wav

Pre-gap length 0:00:01.61

Peak level 76.5 % Extraction speed 1.0 X Track quality 100.0 % Test CRC FF86815A Copy CRC FF86815A Track not present in AccurateRip database Copy OK

Track 3

Filename C:\EAC Rips\03 - Carter Burwell - To Carol's.wav

Pre-gap length 0:00:01.82

Peak level 74.2 % Extraction speed 1.0 X Track quality 100.0 % Test CRC AEAB5415 Copy CRC AEAB5415 Track not present in AccurateRip database Copy OK

Track 4

Filename C:\EAC Rips\04 - The Clovers - One Mint Julep.wav

Pre-gap length 0:00:00.50

Peak level 97.8 % Extraction speed 1.2 X Track quality 100.0 % Test CRC 1848E6E7 Copy CRC 1848E6E7 Track not present in AccurateRip database Copy OK

Track 5

Filename C:\EAC Rips\05 - Carter Burwell - Datebook.wav

Pre-gap length 0:00:03.00

Peak level 79.1 % Extraction speed 0.9 X Track quality 100.0 % Test CRC 91558842 Copy CRC 91558842 Track not present in AccurateRip database Copy OK

Track 6

Filename C:\EAC Rips\06 - Carter Burwell - Christmas Tree.wav

Pre-gap length 0:00:02.00

Peak level 99.6 % Extraction speed 1.3 X Track quality 100.0 % Test CRC ABDA5BE5 Copy CRC ABDA5BE5 Track not present in AccurateRip database Copy OK

Track 7

Filename C:\EAC Rips\07 - Billie Holiday with Teddy Wilson & His Orchestra - Easy Living.wav

Pre-gap length 0:00:01.61

Peak level 65.2 % Extraction speed 1.4 X Track quality 100.0 % Test CRC DDCEBC58 Copy CRC DDCEBC58 Track not present in AccurateRip database Copy OK

Track 8

Filename C:\EAC Rips\08 - Carter Burwell - The Train.wav

Pre-gap length 0:00:02.50

Peak level 96.6 % Extraction speed 1.5 X Track quality 100.0 % Test CRC EE35C4CC Copy CRC EE35C4CC Track not present in AccurateRip database Copy OK

Track 9

Filename C:\EAC Rips\09 - Carter Burwell - Packing.wav

Pre-gap length 0:00:01.62

Peak level 93.2 % Extraction speed 1.2 X Track quality 100.0 % Test CRC 7907ACAE Copy CRC 7907ACAE Track not present in AccurateRip database Copy OK

Track 10

Filename C:\EAC Rips\10 - Carter Burwell - Drive Into Night.wav

Pre-gap length 0:00:01.61

Peak level 98.8 % Extraction speed 0.8 X Track quality 99.8 % Test CRC 917FFF00 Copy CRC 917FFF00 Track not present in AccurateRip database Copy OK

Track 11

Filename C:\EAC Rips\11 - Georgia Gibbs - Kiss of Fire.wav

Pre-gap length 0:00:01.60

Peak level 85.2 % Extraction speed 1.5 X Track quality 100.0 % Test CRC CEA473F7 Copy CRC CEA473F7 Track not present in AccurateRip database Copy OK

Track 12

Filename C:\EAC Rips\12 - Carter Burwell - Waterloo.wav

Pre-gap length 0:00:01.98

Peak level 69.9 % Extraction speed 1.0 X Track quality 100.0 % Test CRC A42312F5 Copy CRC A42312F5 Track not present in AccurateRip database Copy OK

Track 13

Filename C:\EAC Rips\13 - Carter Burwell - Lovers.wav

Pre-gap length 0:00:01.60

Peak level 98.9 % Extraction speed 1.4 X Track quality 99.9 % Test CRC 40F63ADF Copy CRC 40F63ADF Track not present in AccurateRip database Copy OK

Track 14

Filename C:\EAC Rips\14 - Carter Burwell - Gun.wav

Pre-gap length 0:00:01.60

Peak level 95.8 % Extraction speed 1.7 X Track quality 100.0 % Test CRC 834D05C9 Copy CRC 834D05C9 Track not present in AccurateRip database Copy OK

Track 15

Filename C:\EAC Rips\15 - Les Paul & Mary Ford - Smoke Rings.wav

Pre-gap length 0:00:01.60

Peak level 48.8 % Extraction speed 1.5 X Track quality 99.9 % Test CRC D83A12AA Copy CRC D83A12AA Track not present in AccurateRip database Copy OK

Track 16

Filename C:\EAC Rips\16 - Carter Burwell - Over There.wav

Pre-gap length 0:00:01.60

Peak level 98.2 % Extraction speed 1.5 X Track quality 100.0 % Test CRC D3B28C4F Copy CRC D3B28C4F Track not present in AccurateRip database Copy OK

Track 17

Filename C:\EAC Rips\17 - Carter Burwell - Visitation.wav

Pre-gap length 0:00:01.60

Peak level 97.5 % Extraction speed 1.6 X Track quality 100.0 % Test CRC E36FCB42 Copy CRC E36FCB42 Track not present in AccurateRip database Copy OK

Track 18

Filename C:\EAC Rips\18 - Carter Burwell - To Court.wav

Pre-gap length 0:00:01.60

Peak level 98.4 % Extraction speed 1.4 X Track quality 100.0 % Test CRC 673874EC Copy CRC 673874EC Track not present in AccurateRip database Copy OK

Track 19

Filename C:\EAC Rips\19 - Carter Burwell - Letter.wav

Pre-gap length 0:00:01.60

Peak level 81.4 % Extraction speed 2.0 X Track quality 100.0 % Test CRC A982F346 Copy CRC A982F346 Track not present in AccurateRip database Copy OK

Track 20

Filename C:\EAC Rips\20 - Jo Stafford - No Other Love.wav

Pre-gap length 0:00:01.60

Peak level 99.1 % Extraction speed 2.0 X Track quality 100.0 % Test CRC C7F4A8C8 Copy CRC C7F4A8C8 Track not present in AccurateRip database Copy OK

Track 21

Filename C:\EAC Rips\21 - Carter Burwell - The Times.wav

Pre-gap length 0:00:02.60

Peak level 84.6 % Extraction speed 1.9 X Track quality 100.0 % Test CRC 912558EF Copy CRC 912558EF Track not present in AccurateRip database Copy OK

Track 22

Filename C:\EAC Rips\22 - Carter Burwell - Reflections.wav

Pre-gap length 0:00:01.60

Peak level 82.1 % Extraction speed 1.7 X Track quality 100.0 % Test CRC 5D9BB67E Copy CRC 5D9BB67E Track not present in AccurateRip database Copy OK

Track 23

Filename C:\EAC Rips\23 - Carter Burwell - Crossing.wav

Pre-gap length 0:00:01.60

Peak level 91.4 % Extraction speed 1.8 X Track quality 100.0 % Test CRC 59AF5B2E Copy CRC 59AF5B2E Track not present in AccurateRip database Copy OK

Track 24

Filename C:\EAC Rips\24 - Helen Foster & The Rovers - You Belong to Me.wav

Pre-gap length 0:00:01.60

Peak level 62.4 % Extraction speed 2.1 X Track quality 100.0 % Test CRC 79605406 Copy CRC 79605406 Track not present in AccurateRip database Copy OK

Track 25

Filename C:\EAC Rips\25 - Carter Burwell - The End.wav

Pre-gap length 0:00:02.49

Peak level 94.4 % Extraction speed 2.3 X Track quality 100.0 % Test CRC 8B30F33E Copy CRC 8B30F33E Track not present in AccurateRip database Copy OK

None of the tracks are present in the AccurateRip database

No errors occurred

End of status report

---- CUETools DB Plugin V2.1.6

[CTDB TOCID: VwSDsLs7_ID6D7xd8yBdjDjurlI-] foundSubmit result: already submittedTrack | CTDB Status 1 | (1/1) Accurately ripped 2 | (1/1) Accurately ripped 3 | (1/1) Accurately ripped 4 | (1/1) Accurately ripped 5 | (1/1) Accurately ripped 6 | (1/1) Accurately ripped 7 | (1/1) Accurately ripped 8 | (1/1) Accurately ripped 9 | (1/1) Accurately ripped 10 | (1/1) Accurately ripped 11 | (1/1) Accurately ripped 12 | (1/1) Accurately ripped 13 | (1/1) Accurately ripped 14 | (1/1) Accurately ripped 15 | (1/1) Accurately ripped 16 | (1/1) Accurately ripped 17 | (1/1) Accurately ripped 18 | (1/1) Accurately ripped 19 | (1/1) Accurately ripped 20 | (1/1) Accurately ripped 21 | (1/1) Accurately ripped 22 | (1/1) Accurately ripped 23 | (1/1) Accurately ripped 24 | (1/1) Accurately ripped 25 | (1/1) Accurately ripped

==== Log checksum E9CD75A4831DA34B67864E643373BF60D5D730F0CCA7CD61F89532409F80CD44 ====
REM GENRE SoundtrackREM DATE 2015REM DISCID 650C8019REM COMMENT "ExactAudioCopy v1.1"CATALOG 0030206738087PERFORMER "Carter Burwell"TITLE "Carol (Original Motion Picture Soundtrack)"FILE "01 - Carter Burwell - Opening.wav" WAVE TRACK 01 AUDIO TITLE "Opening" PERFORMER "Carter Burwell" ISRC US3M51538001 PREGAP 00:00:20 INDEX 01 00:00:00 TRACK 02 AUDIO TITLE "Taxi" PERFORMER "Carter Burwell" ISRC US3M51538002 INDEX 00 02:13:74FILE "02 - Carter Burwell - Taxi.wav" WAVE INDEX 01 00:00:00 TRACK 03 AUDIO TITLE "To Carol's" PERFORMER "Carter Burwell" ISRC US3M51538003 INDEX 00 01:43:73FILE "03 - Carter Burwell - To Carol's.wav" WAVE INDEX 01 00:00:00 TRACK 04 AUDIO TITLE "One Mint Julep" PERFORMER "The Clovers" ISRC US3M51538004 INDEX 00 01:39:29FILE "04 - The Clovers - One Mint Julep.wav" WAVE INDEX 01 00:00:00 TRACK 05 AUDIO TITLE "Datebook" PERFORMER "Carter Burwell" ISRC US3M51538005 INDEX 00 02:26:01FILE "05 - Carter Burwell - Datebook.wav" WAVE INDEX 01 00:00:00 TRACK 06 AUDIO TITLE "Christmas Tree" PERFORMER "Carter Burwell" ISRC US3M51538006 INDEX 00 00:52:74FILE "06 - Carter Burwell - Christmas Tree.wav" WAVE INDEX 01 00:00:00 TRACK 07 AUDIO TITLE "Easy Living" PERFORMER "Billie Holiday with Teddy Wilson & His Orchestra" ISRC US3M51538007 INDEX 00 02:19:44FILE "07 - Billie Holiday with Teddy Wilson & His Orchestra - Easy Living.wav" WAVE INDEX 01 00:00:00 TRACK 08 AUDIO TITLE "The Train" PERFORMER "Carter Burwell" ISRC US3M51538008 INDEX 00 03:02:19FILE "08 - Carter Burwell - The Train.wav" WAVE INDEX 01 00:00:00 TRACK 09 AUDIO TITLE "Packing" PERFORMER "Carter Burwell" ISRC US3M51538009 INDEX 00 02:30:64FILE "09 - Carter Burwell - Packing.wav" WAVE INDEX 01 00:00:00 TRACK 10 AUDIO TITLE "Drive Into Night" PERFORMER "Carter Burwell" ISRC US3M51538010 INDEX 00 01:10:10FILE "10 - Carter Burwell - Drive Into Night.wav" WAVE INDEX 01 00:00:00 TRACK 11 AUDIO TITLE "Kiss of Fire" PERFORMER "Georgia Gibbs" ISRC US3M51538011 INDEX 00 00:52:10FILE "11 - Georgia Gibbs - Kiss of Fire.wav" WAVE INDEX 01 00:00:00 TRACK 12 AUDIO TITLE "Waterloo" PERFORMER "Carter Burwell" ISRC US3M51538012 INDEX 00 02:25:71FILE "12 - Carter Burwell - Waterloo.wav" WAVE INDEX 01 00:00:00 TRACK 13 AUDIO TITLE "Lovers" PERFORMER "Carter Burwell" ISRC US3M51538013 INDEX 00 00:40:44FILE "13 - Carter Burwell - Lovers.wav" WAVE INDEX 01 00:00:00 TRACK 14 AUDIO TITLE "Gun" PERFORMER "Carter Burwell" ISRC US3M51538014 INDEX 00 02:40:30FILE "14 - Carter Burwell - Gun.wav" WAVE INDEX 01 00:00:00 TRACK 15 AUDIO TITLE "Smoke Rings" PERFORMER "Les Paul & Mary Ford" ISRC US3M51538015 INDEX 00 03:06:00FILE "15 - Les Paul & Mary Ford - Smoke Rings.wav" WAVE INDEX 01 00:00:00 TRACK 16 AUDIO TITLE "Over There" PERFORMER "Carter Burwell" ISRC US3M51538016 INDEX 00 02:56:02FILE "16 - Carter Burwell - Over There.wav" WAVE INDEX 01 00:00:00 TRACK 17 AUDIO TITLE "Visitation" PERFORMER "Carter Burwell" ISRC US3M51538017 INDEX 00 01:12:43FILE "17 - Carter Burwell - Visitation.wav" WAVE INDEX 01 00:00:00 TRACK 18 AUDIO TITLE "To Court" PERFORMER "Carter Burwell" ISRC US3M51538018 INDEX 00 01:29:48FILE "18 - Carter Burwell - To Court.wav" WAVE INDEX 01 00:00:00 TRACK 19 AUDIO TITLE "Letter" PERFORMER "Carter Burwell" ISRC US3M51538019 INDEX 00 01:01:57FILE "19 - Carter Burwell - Letter.wav" WAVE INDEX 01 00:00:00 TRACK 20 AUDIO TITLE "No Other Love" PERFORMER "Jo Stafford" ISRC US3M51538020 INDEX 00 03:25:22FILE "20 - Jo Stafford - No Other Love.wav" WAVE INDEX 01 00:00:00 TRACK 21 AUDIO TITLE "The Times" PERFORMER "Carter Burwell" ISRC US3M51538021 INDEX 00 02:57:38FILE "21 - Carter Burwell - The Times.wav" WAVE INDEX 01 00:00:00 TRACK 22 AUDIO TITLE "Reflections" PERFORMER "Carter Burwell" ISRC US3M51538022 INDEX 00 02:16:08FILE "22 - Carter Burwell - Reflections.wav" WAVE INDEX 01 00:00:00 TRACK 23 AUDIO TITLE "Crossing" PERFORMER "Carter Burwell" ISRC US3M51538023 INDEX 00 01:18:02FILE "23 - Carter Burwell - Crossing.wav" WAVE INDEX 01 00:00:00 TRACK 24 AUDIO TITLE "You Belong to Me" PERFORMER "Helen Foster & The Rovers" ISRC US3M51538024 INDEX 00 01:30:12FILE "24 - Helen Foster & The Rovers - You Belong to Me.wav" WAVE INDEX 01 00:00:00 TRACK 25 AUDIO TITLE "The End" PERFORMER "Carter Burwell" ISRC US3M51538025 INDEX 00 02:53:23FILE "25 - Carter Burwell - The End.wav" WAVE INDEX 01 00:00:00


Трекер:  [ 22-Фев-2016 10:00 ]

  

Скачать .torrent

Размер .torrent файла 19 KB


Размер: 220 MB
Хэш (hash) релиза: 39a0dba9fc8296d9174703933e7352d92404916e

Торренты, похожие на Кэрол Carol скачать торрент

Форум Название Автор Размер S L Добавлен
Саундтреки к фильмам и мультфильмам (mp3) ·· (Score) Кэрол / Carol (Carter Burwell) - 2015, MP3, 320 kbps Galfimbul 121176908116 MB 0 0 1453968393

11:06

28-Янв-16

Еще никто не оставлял запись к записи скачать торрент Кэрол Carol . Будь первым!

!Обратная связь