Скачать через торрент музыку бесплатно без регистрации torrent

Если у вас наблюдаются проблемы со скриншотами, переходом по ссылками, скачиванием торрентов - проблемы в блокировщике рекламы AdBlock. #хорошегоДня!


Статистика раздачи
Размер:  1.57 GB   |    Зарегистрирован:  1 год 7 месяцев   |    .torrent скачан:  24 раза   |   
Раздают:  1  
   
Загрузка...
 
Автор Сообщение

Galfimbul

avatar Galfimbul


Various - Pure... Movies (4CD Box Set)



Жанр: Pop, Soundtrack
Носитель: CD
Год издания: 2010
Издатель (лейбл): Sony Music
Номер по каталогу: 886977
Страна исполнителя (группы): 53052
Аудиокодек: FLAC (*.flac)
Тип рипа: image+.cue
Битрейт аудио: lossless
Продолжительность: 59:26/61:29/60:40/75:22
Источник (релизер): gvm55
Наличие сканов в содержимом раздачи: да 
 
Треклист:
01. Ghostbusters (Ray Parker Jr.) (4:01)
02. When The Going Gets Tough, The Tough Get Going (Billy Ocean) (4:10)
03. Eye Of The Tiger (Survivor) (3:49)
04. Danger Zone (Kenny Loggins) (3:36)
05. Let's Hear It For The Boy (Deniece Williams) (4:21)
06. Waiting For A Star To Fall (Boy Meets Girl) (4:34)
07. Enjoy Yourself (The Jacksons) (3:23)
08. Everyday People (Sly & The Family Stone) (2:22)
09. Somebody To Love (Jefferson Airplane) (2:58)
10. Aquarius / Let The Sunshine In (The Flesh Failures) (The Fifth Dimension) (4:49)
11. Ballad Of Easy Rider (The Byrds) (2:04)
12. The Way You Look Tonight (Tony Bennett) (3:25)
13. (Where Do I Begin) Love Story (Andy Williams) (3:11)
14. Blue Velvet (Bobby Vinton) (2:49)
15. Moon River (Henry Mancini & His Orchestra & Chorus) (2:43)
16. Boggie Nights (Heatwave) (3:37)
17. Kissin' In The Back Row Of The Movies (The Drifters) (3:33)
 
Exact Audio Copy V1.0 beta 3 from 29. August 2011

EAC extraction logfile from 21. February 2015, 22:00

Various Artists / Pure… Movies CD1

Used drive : PIONEER BD-RW BDR-206 Adapter: 1 ID: 0

Read mode : SecureUtilize accurate stream : YesDefeat audio cache : YesMake use of C2 pointers : No

Read offset correction : 667Overread into Lead-In and Lead-Out : NoFill up missing offset samples with silence : YesDelete leading and trailing silent blocks : NoNull samples used in CRC calculations : YesUsed interface : Native Win32 interface for Win NT & 2000

Used output format : User Defined EncoderSelected bitrate : 1024 kBit/sQuality : HighAdd ID3 tag : NoCommand line compressor : C:\Program Files (x86)\Exact Audio Copy\Flac\flac.exeAdditional command line options : -8 -V -T "ARTIST=%artist%" -T "TITLE=%title%" -T "ALBUM=%albumtitle%" -T "DATE=%year%" -T "TRACKNUMBER=%tracknr%" -T "GENRE=%genre%" -T "COMMENT=%comment%" -T "BAND=%albuminterpret%" -T "ALBUMARTIST=%albuminterpret%" -T "COMPOSER=%composer%" %haslyrics%--tag-from-file=LYRICS="%lyricsfile%"%haslyrics% -T "DISCNUMBER=%cdnumber%" -T "TOTALDISCS=%totalcds%" -T "TOTALTRACKS=%numtracks%" %hascover%--picture="%coverfile%"%hascover% %source% -o %dest%

TOC of the extracted CD

Track | Start | Length | Start sector | End sector --------------------------------------------------------- 1 | 0:00.00 | 4:00.57 | 0 | 18056 2 | 4:00.57 | 4:10.01 | 18057 | 36807 3 | 8:10.58 | 3:48.47 | 36808 | 53954 4 | 11:59.30 | 3:36.20 | 53955 | 70174 5 | 15:35.50 | 4:21.32 | 70175 | 89781 6 | 19:57.07 | 4:33.66 | 89782 | 110322 7 | 24:30.73 | 3:23.00 | 110323 | 125547 8 | 27:53.73 | 2:22.16 | 125548 | 136213 9 | 30:16.14 | 2:58.19 | 136214 | 149582 10 | 33:14.33 | 4:48.54 | 149583 | 171236 11 | 38:03.12 | 2:04.19 | 171237 | 180555 12 | 40:07.31 | 3:24.50 | 180556 | 195905 13 | 43:32.06 | 3:11.34 | 195906 | 210264 14 | 46:43.40 | 2:49.01 | 210265 | 222940 15 | 49:32.41 | 2:43.36 | 222941 | 235201 16 | 52:16.02 | 3:37.35 | 235202 | 251511 17 | 55:53.37 | 3:32.49 | 251512 | 267460

Range status and errors

Selected range

Filename D:\Сборники (Flac)\VA - Pure... Moves (2010) 4CD (Flac+cue)\CD1\Various Artists - Pure… Movies CD1.wav

Peak level 98.8 % Extraction speed 7.5 X Range quality 100.0 % Test CRC F5829C47 Copy CRC F5829C47 Copy OK

No errors occurred

AccurateRip summary

Track 1 accurately ripped (confidence 8) [051EC168] (AR v2)Track 2 accurately ripped (confidence 8) [8E2D862B] (AR v2)Track 3 accurately ripped (confidence 8) [4FE4B285] (AR v2)Track 4 accurately ripped (confidence 8) [2DB94E83] (AR v2)Track 5 accurately ripped (confidence 8) [D6443095] (AR v2)Track 6 accurately ripped (confidence 8) [2FBA8D7E] (AR v2)Track 7 accurately ripped (confidence 8) [4EDADA6F] (AR v2)Track 8 accurately ripped (confidence 7) [639533CC] (AR v2)Track 9 accurately ripped (confidence 7) [8147530C] (AR v2)Track 10 accurately ripped (confidence 7) [6351DC8C] (AR v2)Track 11 accurately ripped (confidence 7) [052D9A94] (AR v2)Track 12 accurately ripped (confidence 7) [6C7ABE3D] (AR v2)Track 13 accurately ripped (confidence 7) [9A3A2DC3] (AR v2)Track 14 accurately ripped (confidence 7) [6C6620F9] (AR v2)Track 15 accurately ripped (confidence 7) [2185D606] (AR v2)Track 16 accurately ripped (confidence 8) [0288161A] (AR v2)Track 17 accurately ripped (confidence 8) [F4519DE8] (AR v2)

All tracks accurately ripped

End of status report

---- CUETools DB Plugin V2.1.3

[CTDB TOCID: dkIBWvdlYcknMJ8BRbrVeQHxk_w-] found, Submit result: dkIBWvdlYcknMJ8BRbrVeQHxk_w- has been confirmed[cb40738e] (13/13) Accurately ripped

==== Log checksum 1B7CE1D7907027148DE7189E4CA40CA70FF21DDAD228B38497217A225C581B3E ====
REM GENRE SoundtrackREM DATE 2010REM DISCID 080DEE11REM COMMENT "ExactAudioCopy v1.0b3"PERFORMER "Various"TITLE "Pure... Movies (Disc 1)"FILE "Various Artists - Pure… Movies CD1.flac" WAVE TRACK 01 AUDIO TITLE "Ghostbusters" PERFORMER "Ray Parker Jr." INDEX 01 00:00:00 TRACK 02 AUDIO TITLE "When The Going Gets Tough, The Tough Get Going" PERFORMER "Billy Ocean" INDEX 00 03:58:74 INDEX 01 04:00:57 TRACK 03 AUDIO TITLE "Eye Of The Tiger" PERFORMER "Survivor" INDEX 00 08:09:00 INDEX 01 08:10:58 TRACK 04 AUDIO TITLE "Danger Zone" PERFORMER "Kenny Loggins" INDEX 00 11:57:47 INDEX 01 11:59:30 TRACK 05 AUDIO TITLE "Let's Hear It For The Boy" PERFORMER "Deniece Williams" INDEX 00 15:33:67 INDEX 01 15:35:50 TRACK 06 AUDIO TITLE "Waiting For A Star To Fall" PERFORMER "Boy Meets Girl" INDEX 00 19:55:24 INDEX 01 19:57:07 TRACK 07 AUDIO TITLE "Enjoy Yourself" PERFORMER "The Jacksons" INDEX 00 24:29:15 INDEX 01 24:30:73 TRACK 08 AUDIO TITLE "Everyday People" PERFORMER "Sly & The Family Stone" INDEX 00 27:52:15 INDEX 01 27:53:73 TRACK 09 AUDIO TITLE "Somebody To Love" PERFORMER "Jefferson Airplane" INDEX 00 30:14:31 INDEX 01 30:16:14 TRACK 10 AUDIO TITLE "Aquarius / Let The Sunshine In (The Flesh Failures)" PERFORMER "The Fifth Dimension" INDEX 00 33:12:50 INDEX 01 33:14:33 TRACK 11 AUDIO TITLE "Ballad Of Easy Rider" PERFORMER "The Byrds" INDEX 00 38:01:29 INDEX 01 38:03:12 TRACK 12 AUDIO TITLE "The Way You Look Tonight" PERFORMER "Tony Bennett" INDEX 00 40:05:48 INDEX 01 40:07:31 TRACK 13 AUDIO TITLE "(Where Do I Begin) Love Story" PERFORMER "Andy Williams" INDEX 00 43:30:23 INDEX 01 43:32:06 TRACK 14 AUDIO TITLE "Blue Velvet" PERFORMER "Bobby Vinton" INDEX 00 46:41:57 INDEX 01 46:43:40 TRACK 15 AUDIO TITLE "Moon River" PERFORMER "Henry Mancini & His Orchestra & Chorus" INDEX 00 49:30:58 INDEX 01 49:32:41 TRACK 16 AUDIO TITLE "Boggie Nights" PERFORMER "Heatwave" INDEX 00 52:14:19 INDEX 01 52:16:02 TRACK 17 AUDIO TITLE "Kissin' In The Back Row Of The Movies" PERFORMER "The Drifters" INDEX 00 55:51:54 INDEX 01 55:53:37
Треклист:
01. Viva Las Vagas (Elvis Presley & The Jordanaires) (2:26)
02. 9 To 5 (Dolly Parton) (2:47)
03. Loco In Acapulco (The Four Tops) (4:33)
04. Mrs. Robinson (Simon & Garfunkel) (4:04)
05. Perfect Day (Lou Reed) (3:45)
06. Livin' Thing (Electric Light Orchestra) (3:32)
07. Pretty In Pink (The Psychedelic Furs) (4:38)
08. Crash (The Primitives) (2:33)
09. Holding Out For A Hero (Bonnie Tyler) (4:24)
10. Girl's Just Want To Have Fun (Cyndi Lauper) (3:50)
11. Shy Guy (Diana King) (4:06)
12. Here Comes The Hotstepper (Ini Kamoze) (4:11)
13. I'm Every Woman (Whitney Houston) (4:47)
14. Ain't No Sunshine (Bill Withers) (2:05)
15. Stay (Maurice Williams & The Zodiacs) (1:36)
16. Suicide Is Painless (From The 20th Century-Fox Film M*A*S*H) (The Mash) (2:55)
17. I Will Find You (Theme From ''The Last Of The Mohicans'') (Clannad) (5:17)
 
Exact Audio Copy V1.0 beta 3 from 29. August 2011

EAC extraction logfile from 21. February 2015, 22:39

Various Artists / Pure… Movies CD2

Used drive : PIONEER BD-RW BDR-206 Adapter: 1 ID: 0

Read mode : SecureUtilize accurate stream : YesDefeat audio cache : YesMake use of C2 pointers : No

Read offset correction : 667Overread into Lead-In and Lead-Out : NoFill up missing offset samples with silence : YesDelete leading and trailing silent blocks : NoNull samples used in CRC calculations : YesUsed interface : Native Win32 interface for Win NT & 2000

Used output format : User Defined EncoderSelected bitrate : 1024 kBit/sQuality : HighAdd ID3 tag : NoCommand line compressor : C:\Program Files (x86)\Exact Audio Copy\Flac\flac.exeAdditional command line options : -8 -V -T "ARTIST=%artist%" -T "TITLE=%title%" -T "ALBUM=%albumtitle%" -T "DATE=%year%" -T "TRACKNUMBER=%tracknr%" -T "GENRE=%genre%" -T "COMMENT=%comment%" -T "BAND=%albuminterpret%" -T "ALBUMARTIST=%albuminterpret%" -T "COMPOSER=%composer%" %haslyrics%--tag-from-file=LYRICS="%lyricsfile%"%haslyrics% -T "DISCNUMBER=%cdnumber%" -T "TOTALDISCS=%totalcds%" -T "TOTALTRACKS=%numtracks%" %hascover%--picture="%coverfile%"%hascover% %source% -o %dest%

TOC of the extracted CD

Track | Start | Length | Start sector | End sector --------------------------------------------------------- 1 | 0:00.00 | 2:26.19 | 0 | 10968 2 | 2:26.19 | 2:46.44 | 10969 | 23462 3 | 5:12.63 | 4:33.35 | 23463 | 43972 4 | 9:46.23 | 4:04.25 | 43973 | 62297 5 | 13:50.48 | 3:44.43 | 62298 | 79140 6 | 17:35.16 | 3:32.36 | 79141 | 95076 7 | 21:07.52 | 4:38.25 | 95077 | 115951 8 | 25:46.02 | 2:33.00 | 115952 | 127426 9 | 28:19.02 | 4:24.22 | 127427 | 147248 10 | 32:43.24 | 3:49.72 | 147249 | 164495 11 | 36:33.21 | 4:06.03 | 164496 | 182948 12 | 40:39.24 | 4:10.54 | 182949 | 201752 13 | 44:50.03 | 4:46.68 | 201753 | 223270 14 | 49:36.71 | 2:04.40 | 223271 | 232610 15 | 51:41.36 | 1:36.06 | 232611 | 239816 16 | 53:17.42 | 2:54.41 | 239817 | 252907 17 | 56:12.08 | 5:16.55 | 252908 | 276662

Range status and errors

Selected range

Filename D:\Сборники (Flac)\VA - Pure... Moves (2010) 4CD (Flac+cue)\CD2\Various Artists - Pure… Movies CD2.wav

Peak level 99.2 % Extraction speed 7.8 X Range quality 99.9 % Test CRC B60808E8 Copy CRC B60808E8 Copy OK

No errors occurred

AccurateRip summary

Track 1 accurately ripped (confidence 8) [21672042] (AR v2)Track 2 accurately ripped (confidence 8) [3FD4D708] (AR v2)Track 3 accurately ripped (confidence 8) [3A1A0B8A] (AR v2)Track 4 accurately ripped (confidence 8) [C7E5007F] (AR v2)Track 5 accurately ripped (confidence 8) [284945CC] (AR v2)Track 6 accurately ripped (confidence 8) [16515053] (AR v2)Track 7 accurately ripped (confidence 8) [D60DD9A3] (AR v2)Track 8 accurately ripped (confidence 8) [0A5C45E7] (AR v2)Track 9 accurately ripped (confidence 8) [4EDE0557] (AR v2)Track 10 accurately ripped (confidence 8) [4D6BA1A2] (AR v2)Track 11 accurately ripped (confidence 8) [C275E703] (AR v2)Track 12 accurately ripped (confidence 8) [4E201C1B] (AR v2)Track 13 accurately ripped (confidence 8) [5DD2275C] (AR v2)Track 14 accurately ripped (confidence 8) [959D188A] (AR v2)Track 15 accurately ripped (confidence 8) [DFBF05E3] (AR v2)Track 16 accurately ripped (confidence 8) [DE181C05] (AR v2)Track 17 accurately ripped (confidence 8) [F74591AE] (AR v2)

All tracks accurately ripped

End of status report

---- CUETools DB Plugin V2.1.3

[CTDB TOCID: _fzsY.z06XeUmpA5bYDVr7IqQgE-] found, Submit result: _fzsY.z06XeUmpA5bYDVr7IqQgE- has been confirmed[76de1d39] (11/11) Accurately ripped

==== Log checksum 731B3153A3C40759ACF5A147FE4BF7A05680DDA867D1DDF2B3D58A571CC6D2AD ====
REM GENRE SoundtrackREM DATE 2010REM DISCID 000E6811REM COMMENT "ExactAudioCopy v1.0b3"PERFORMER "Various"TITLE "Pure… Movies CD2"FILE "Various Artists - Pure… Movies CD2.flac" WAVE TRACK 01 AUDIO TITLE "Viva Las Vagas" PERFORMER "Elvis Presley & The Jordanaires" INDEX 01 00:00:00 TRACK 02 AUDIO TITLE "9 To 5" PERFORMER "Dolly Parton" INDEX 00 02:24:36 INDEX 01 02:26:19 TRACK 03 AUDIO TITLE "Loco In Acapulco" PERFORMER "The Four Tops" INDEX 00 05:11:05 INDEX 01 05:12:63 TRACK 04 AUDIO TITLE "Mrs. Robinson" PERFORMER "Simon & Garfunkel" INDEX 00 09:44:40 INDEX 01 09:46:23 TRACK 05 AUDIO TITLE "Perfect Day" PERFORMER "Lou Reed" INDEX 00 13:48:65 INDEX 01 13:50:48 TRACK 06 AUDIO TITLE "Livin' Thing" PERFORMER "Electric Light Orchestra" INDEX 00 17:33:33 INDEX 01 17:35:16 TRACK 07 AUDIO TITLE "Pretty In Pink" PERFORMER "The Psychedelic Furs" INDEX 00 21:05:69 INDEX 01 21:07:52 TRACK 08 AUDIO TITLE "Crash" PERFORMER "The Primitives" INDEX 00 25:44:19 INDEX 01 25:46:02 TRACK 09 AUDIO TITLE "Holding Out For A Hero" PERFORMER "Bonnie Tyler" INDEX 00 28:17:19 INDEX 01 28:19:02 TRACK 10 AUDIO TITLE "Girl's Just Want To Have Fun" PERFORMER "Cyndi Lauper" INDEX 00 32:41:41 INDEX 01 32:43:24 TRACK 11 AUDIO TITLE "Shy Guy" PERFORMER "Diana King" INDEX 00 36:31:38 INDEX 01 36:33:21 TRACK 12 AUDIO TITLE "Here Comes The Hotstepper" PERFORMER "Ini Kamoze" INDEX 00 40:37:41 INDEX 01 40:39:24 TRACK 13 AUDIO TITLE "I'm Every Woman" PERFORMER "Whitney Houston" INDEX 00 44:48:20 INDEX 01 44:50:03 TRACK 14 AUDIO TITLE "Ain't No Sunshine" PERFORMER "Bill Withers" INDEX 00 49:35:13 INDEX 01 49:36:71 TRACK 15 AUDIO TITLE "Stay" PERFORMER "Maurice Williams & The Zodiacs" INDEX 00 51:39:53 INDEX 01 51:41:36 TRACK 16 AUDIO TITLE "Suicide Is Painless (From The 20th Century-Fox Film M*A*S*H)" PERFORMER "The Mash" INDEX 00 53:15:59 INDEX 01 53:17:42 TRACK 17 AUDIO TITLE "I Will Find You (Theme From ''The Last Of The Mohicans'')" PERFORMER "Clannad" INDEX 00 56:10:25 INDEX 01 56:12:08
Треклист:
01. Footloose (Kenny Loggins) (3:48)
02. Maneater (Daryl Hall & John Oates) (4:32)
03. I Ran (A Flock Of Seagulls) (3:41)
04. Hold Me Now (Thompson Twins) (4:47)
05. Islands In The Stream (Dolly Parton & Kenny Rogers) (4:11)
06. Almost Paradise (Mike Reno feat. Ann Wilson) (3:53)
07. Things Have Changed (Bob Dylan) (5:09)
08. Banana Boat (Day-o) (Harry Belafonte) (3:04)
09. Over The Rainbow (Judy Garland) (2:47)
10. Singin' In The Rain (Gene Kelly) (4:17)
11. The Pink Panther Theme (Henry Mancini & His Orchestra & Chorus) (2:38)
12. Raindrops Keep Fallin' On My Head (Peter Nero) (2:44)
13. The Good, The Bad And The Ugly (Hugo Montenegro & His Orchestra & Chorus) (2:47)
14. Everybody's Talkin' (Harry Nilsson) (2:45)
15. Brown Eyed Girl (Van Morrison) (3:02)
16. Shining Star (Earth, Wind & Fire) (2:52)
17. Best Of My Love (The Emotions) (3:42)
 
Exact Audio Copy V1.0 beta 3 from 29. August 2011

EAC extraction logfile from 21. February 2015, 23:20

Various Artists / Pure… Movies CD3

Used drive : PIONEER BD-RW BDR-206 Adapter: 1 ID: 0

Read mode : SecureUtilize accurate stream : YesDefeat audio cache : YesMake use of C2 pointers : No

Read offset correction : 667Overread into Lead-In and Lead-Out : NoFill up missing offset samples with silence : YesDelete leading and trailing silent blocks : NoNull samples used in CRC calculations : YesUsed interface : Native Win32 interface for Win NT & 2000

Used output format : User Defined EncoderSelected bitrate : 1024 kBit/sQuality : HighAdd ID3 tag : NoCommand line compressor : C:\Program Files (x86)\Exact Audio Copy\Flac\flac.exeAdditional command line options : -8 -V -T "ARTIST=%artist%" -T "TITLE=%title%" -T "ALBUM=%albumtitle%" -T "DATE=%year%" -T "TRACKNUMBER=%tracknr%" -T "GENRE=%genre%" -T "COMMENT=%comment%" -T "BAND=%albuminterpret%" -T "ALBUMARTIST=%albuminterpret%" -T "COMPOSER=%composer%" %haslyrics%--tag-from-file=LYRICS="%lyricsfile%"%haslyrics% -T "DISCNUMBER=%cdnumber%" -T "TOTALDISCS=%totalcds%" -T "TOTALTRACKS=%numtracks%" %hascover%--picture="%coverfile%"%hascover% %source% -o %dest%

TOC of the extracted CD

Track | Start | Length | Start sector | End sector --------------------------------------------------------- 1 | 0:00.00 | 3:48.20 | 0 | 17119 2 | 3:48.20 | 4:32.34 | 17120 | 37553 3 | 8:20.54 | 3:41.19 | 37554 | 54147 4 | 12:01.73 | 4:46.48 | 54148 | 75645 5 | 16:48.46 | 4:10.54 | 75646 | 94449 6 | 20:59.25 | 3:52.46 | 94450 | 111895 7 | 24:51.71 | 5:09.17 | 111896 | 135087 8 | 30:01.13 | 3:03.65 | 135088 | 148877 9 | 33:05.03 | 2:46.44 | 148878 | 161371 10 | 35:51.47 | 4:17.25 | 161372 | 180671 11 | 40:08.72 | 2:38.34 | 180672 | 192555 12 | 42:47.31 | 2:43.50 | 192556 | 204830 13 | 45:31.06 | 2:47.01 | 204831 | 217356 14 | 48:18.07 | 2:45.36 | 217357 | 229767 15 | 51:03.43 | 3:02.23 | 229768 | 243440 16 | 54:05.66 | 2:52.01 | 243441 | 256341 17 | 56:57.67 | 3:41.62 | 256342 | 272978

Range status and errors

Selected range

Filename D:\Сборники (Flac)\VA - Pure... Moves (2010) 4CD (Flac+cue)\CD3\Various Artists - Pure… Movies CD3.wav

Peak level 98.8 % Extraction speed 7.7 X Range quality 99.9 % Test CRC AD124E54 Copy CRC AD124E54 Copy OK

No errors occurred

AccurateRip summary

Track 1 accurately ripped (confidence 7) [61A3DA55] (AR v2)Track 2 accurately ripped (confidence 7) [DFA3C14A] (AR v2)Track 3 accurately ripped (confidence 7) [199A1BC8] (AR v2)Track 4 accurately ripped (confidence 7) [A7D6F587] (AR v2)Track 5 accurately ripped (confidence 7) [6B64C437] (AR v2)Track 6 accurately ripped (confidence 7) [88D86843] (AR v2)Track 7 accurately ripped (confidence 7) [B1965FCB] (AR v2)Track 8 accurately ripped (confidence 7) [09B2082A] (AR v2)Track 9 accurately ripped (confidence 7) [7F3638D3] (AR v2)Track 10 accurately ripped (confidence 7) [733C52DC] (AR v2)Track 11 accurately ripped (confidence 7) [227BECD3] (AR v2)Track 12 accurately ripped (confidence 7) [56C4E7A3] (AR v2)Track 13 accurately ripped (confidence 7) [260BA186] (AR v2)Track 14 accurately ripped (confidence 7) [EAB2EA28] (AR v2)Track 15 accurately ripped (confidence 7) [07FC5C6E] (AR v2)Track 16 accurately ripped (confidence 7) [CB922600] (AR v2)Track 17 accurately ripped (confidence 7) [7C76914B] (AR v2)

All tracks accurately ripped

End of status report

---- CUETools DB Plugin V2.1.3

[CTDB TOCID: t7KnYhgKWropvevAfpGyUOFQAz4-] found, Submit result: t7KnYhgKWropvevAfpGyUOFQAz4- has been confirmed[e68046c7] (12/12) Accurately ripped

==== Log checksum DE070E89BAED21408CDA969BCF23DEE2BC401B93614BE1E0E5C51CD3C474FCE7 ====
REM GENRE SoundtrackREM DATE 2010REM DISCID CD0E3711REM COMMENT "ExactAudioCopy v1.0b3"PERFORMER "Various"TITLE "Pure… Movies CD3"FILE "Various Artists - Pure… Movies CD3.flac" WAVE TRACK 01 AUDIO TITLE "Footloose" PERFORMER "Kenny Loggins" INDEX 01 00:00:00 TRACK 02 AUDIO TITLE "Maneater" PERFORMER "Daryl Hall & John Oates" INDEX 00 03:46:37 INDEX 01 03:48:20 TRACK 03 AUDIO TITLE "I Ran" PERFORMER "A Flock Of Seagulls" INDEX 00 08:18:71 INDEX 01 08:20:54 TRACK 04 AUDIO TITLE "Hold Me Now" PERFORMER "Thompson Twins" INDEX 00 12:00:15 INDEX 01 12:01:73 TRACK 05 AUDIO TITLE "Islands In The Stream" PERFORMER "Dolly Parton & Kenny Rogers" INDEX 00 16:46:63 INDEX 01 16:48:46 TRACK 06 AUDIO TITLE "Almost Paradise" PERFORMER "Mike Reno feat. Ann Wilson" INDEX 00 20:57:42 INDEX 01 20:59:25 TRACK 07 AUDIO TITLE "Things Have Changed" PERFORMER "Bob Dylan" INDEX 00 24:50:13 INDEX 01 24:51:71 TRACK 08 AUDIO TITLE "Banana Boat (Day-o)" PERFORMER "Harry Belafonte" INDEX 00 29:59:30 INDEX 01 30:01:13 TRACK 09 AUDIO TITLE "Over The Rainbow" PERFORMER "Judy Garland" INDEX 00 33:03:20 INDEX 01 33:05:03 TRACK 10 AUDIO TITLE "Singin' In The Rain" PERFORMER "Gene Kelly" INDEX 00 35:49:64 INDEX 01 35:51:47 TRACK 11 AUDIO TITLE "The Pink Panther Theme" PERFORMER "Henry Mancini & His Orchestra & Chorus" INDEX 00 40:07:14 INDEX 01 40:08:72 TRACK 12 AUDIO TITLE "Raindrops Keep Fallin' On My Head" PERFORMER "Peter Nero" INDEX 00 42:45:48 INDEX 01 42:47:31 TRACK 13 AUDIO TITLE "The Good, The Bad And The Ugly" PERFORMER "Hugo Montenegro & His Orchestra & Chorus" INDEX 00 45:29:23 INDEX 01 45:31:06 TRACK 14 AUDIO TITLE "Everybody's Talkin'" PERFORMER "Harry Nilsson" INDEX 00 48:16:24 INDEX 01 48:18:07 TRACK 15 AUDIO TITLE "Brown Eyed Girl" PERFORMER "Van Morrison" INDEX 00 51:01:60 INDEX 01 51:03:43 TRACK 16 AUDIO TITLE "Shining Star" PERFORMER "Earth, Wind & Fire" INDEX 00 54:04:08 INDEX 01 54:05:66 TRACK 17 AUDIO TITLE "Best Of My Love" PERFORMER "The Emotions" INDEX 00 56:56:09 INDEX 01 56:57:67
Треклист:
01. The James Bond Theme (John Barry) (2:55)
02. Mission Impossible (Royal Philharmonic Orchestra) (4:37)
03. Jaws (Royal Philharmonic Orchestra) (2:31)
04. Indiana Jones And The Temple Of Doom (Royal Philharmonic Orchestra) (6:49)
05. The Great Escape (Royal Philharmonic Orchestra) (2:46)
06. Batman (Royal Philharmonic Orchestra) (2:35)
07. Pirates Of The Caribbean (Royal Philharmonic Orchestra) (5:51)
08. Jurassic Park (Royal Philharmonic Orchestra) (5:36)
09. The Lord Of The Rings (Royal Philharmonic Orchestra) (5:27)
10. Ben Hur (Royal Philharmonic Orchestra) (4:35)
11. Schindler's List (Royal Philharmonic Orchestra) (3:57)
12. Pride And Prejudice (Royal Philharmonic Orchestra) (3:57)
13. The Deer Hunter (Royal Philharmonic Orchestra) (3:35)
14. The Shawshank Redemption (Royal Philharmonic Orchestra) (4:09)
15. Four Weddings And A Funeral (Royal Philharmonic Orchestra) (3:09)
16. Romeo And Juliet (Royal Philharmonic Orchestra) (5:50)
17. Titanic (Royal Philharmonic Orchestra) (7:01)
 
Exact Audio Copy V1.0 beta 3 from 29. August 2011

EAC extraction logfile from 22. February 2015, 1:20

Various Artists / Pure… Movies CD4

Used drive : PIONEER BD-RW BDR-206 Adapter: 1 ID: 0

Read mode : SecureUtilize accurate stream : YesDefeat audio cache : YesMake use of C2 pointers : No

Read offset correction : 667Overread into Lead-In and Lead-Out : NoFill up missing offset samples with silence : YesDelete leading and trailing silent blocks : NoNull samples used in CRC calculations : YesUsed interface : Native Win32 interface for Win NT & 2000

Used output format : User Defined EncoderSelected bitrate : 1024 kBit/sQuality : HighAdd ID3 tag : NoCommand line compressor : C:\Program Files (x86)\Exact Audio Copy\Flac\flac.exeAdditional command line options : -8 -V -T "ARTIST=%artist%" -T "TITLE=%title%" -T "ALBUM=%albumtitle%" -T "DATE=%year%" -T "TRACKNUMBER=%tracknr%" -T "GENRE=%genre%" -T "COMMENT=%comment%" -T "BAND=%albuminterpret%" -T "ALBUMARTIST=%albuminterpret%" -T "COMPOSER=%composer%" %haslyrics%--tag-from-file=LYRICS="%lyricsfile%"%haslyrics% -T "DISCNUMBER=%cdnumber%" -T "TOTALDISCS=%totalcds%" -T "TOTALTRACKS=%numtracks%" %hascover%--picture="%coverfile%"%hascover% %source% -o %dest%

TOC of the extracted CD

Track | Start | Length | Start sector | End sector --------------------------------------------------------- 1 | 0:00.00 | 2:55.33 | 0 | 13157 2 | 2:55.33 | 4:36.63 | 13158 | 33920 3 | 7:32.21 | 2:31.33 | 33921 | 45278 4 | 10:03.54 | 6:48.51 | 45279 | 75929 5 | 16:52.30 | 2:46.27 | 75930 | 88406 6 | 19:38.57 | 2:34.73 | 88407 | 100029 7 | 22:13.55 | 5:50.48 | 100030 | 126327 8 | 28:04.28 | 5:36.08 | 126328 | 151535 9 | 33:40.36 | 5:26.58 | 151536 | 176043 10 | 39:07.19 | 4:34.57 | 176044 | 196650 11 | 43:42.01 | 3:57.24 | 196651 | 214449 12 | 47:39.25 | 3:57.18 | 214450 | 232242 13 | 51:36.43 | 3:35.33 | 232243 | 248400 14 | 55:12.01 | 4:09.29 | 248401 | 267104 15 | 59:21.30 | 3:09.26 | 267105 | 281305 16 | 62:30.56 | 5:49.40 | 281306 | 307520 17 | 68:20.21 | 7:01.24 | 307521 | 339119

Range status and errors

Selected range

Filename D:\Сборники (Flac)\VA - Pure... Moves (2010) 4CD (Flac+cue)\CD4\Various Artists - Pure… Movies CD4.wav

Peak level 98.5 % Extraction speed 8.2 X Range quality 100.0 % Test CRC 32BF6573 Copy CRC 32BF6573 Copy OK

No errors occurred

AccurateRip summary

Track 1 accurately ripped (confidence 7) [1978F6A8] (AR v2)Track 2 accurately ripped (confidence 7) [74E014C8] (AR v2)Track 3 accurately ripped (confidence 7) [B41E3D5A] (AR v2)Track 4 accurately ripped (confidence 7) [0ADE05E6] (AR v2)Track 5 accurately ripped (confidence 7) [67649AA6] (AR v2)Track 6 accurately ripped (confidence 7) [5350D24A] (AR v2)Track 7 accurately ripped (confidence 7) [0D306441] (AR v2)Track 8 accurately ripped (confidence 7) [23532D82] (AR v2)Track 9 accurately ripped (confidence 7) [142F9E30] (AR v2)Track 10 accurately ripped (confidence 7) [5B748F07] (AR v2)Track 11 accurately ripped (confidence 7) [BADF1748] (AR v2)Track 12 accurately ripped (confidence 7) [5716B0B2] (AR v2)Track 13 accurately ripped (confidence 7) [E900E533] (AR v2)Track 14 accurately ripped (confidence 7) [25697304] (AR v2)Track 15 accurately ripped (confidence 7) [5DA7BB27] (AR v2)Track 16 accurately ripped (confidence 7) [EA6DE316] (AR v2)Track 17 accurately ripped (confidence 7) [5CDC392D] (AR v2)

All tracks accurately ripped

End of status report

---- CUETools DB Plugin V2.1.3

[CTDB TOCID: RCf8rrknV9VmHWjz2h5k49HQU54-] found, Submit result: RCf8rrknV9VmHWjz2h5k49HQU54- has been confirmed[18cc09db] (11/11) Accurately ripped

==== Log checksum 95B878BBA3ED4937D8523E3FDD498765839E8A105EEA7BC2C36D6C4F46FA9FCC ====
REM GENRE SoundtrackREM DATE 2010REM DISCID D911A911REM COMMENT "ExactAudioCopy v1.0b3"PERFORMER "Various"TITLE "Pure… Movies CD4"FILE "Various Artists - Pure… Movies CD4.flac" WAVE TRACK 01 AUDIO TITLE "The James Bond Theme" PERFORMER "John Barry" INDEX 01 00:00:00 TRACK 02 AUDIO TITLE "Mission Impossible" PERFORMER "Royal Philharmonic Orchestra" INDEX 00 02:53:50 INDEX 01 02:55:33 TRACK 03 AUDIO TITLE "Jaws" PERFORMER "Royal Philharmonic Orchestra" INDEX 00 07:30:38 INDEX 01 07:32:21 TRACK 04 AUDIO TITLE "Indiana Jones And The Temple Of Doom" PERFORMER "Royal Philharmonic Orchestra" INDEX 00 10:01:71 INDEX 01 10:03:54 TRACK 05 AUDIO TITLE "The Great Escape" PERFORMER "Royal Philharmonic Orchestra" INDEX 00 16:50:47 INDEX 01 16:52:30 TRACK 06 AUDIO TITLE "Batman" PERFORMER "Royal Philharmonic Orchestra" INDEX 00 19:36:74 INDEX 01 19:38:57 TRACK 07 AUDIO TITLE "Pirates Of The Caribbean" PERFORMER "Royal Philharmonic Orchestra" INDEX 00 22:11:72 INDEX 01 22:13:55 TRACK 08 AUDIO TITLE "Jurassic Park" PERFORMER "Royal Philharmonic Orchestra" INDEX 00 28:02:45 INDEX 01 28:04:28 TRACK 09 AUDIO TITLE "The Lord Of The Rings" PERFORMER "Royal Philharmonic Orchestra" INDEX 00 33:38:53 INDEX 01 33:40:36 TRACK 10 AUDIO TITLE "Ben Hur" PERFORMER "Royal Philharmonic Orchestra" INDEX 00 39:05:36 INDEX 01 39:07:19 TRACK 11 AUDIO TITLE "Schindler's List" PERFORMER "Royal Philharmonic Orchestra" INDEX 00 43:40:18 INDEX 01 43:42:01 TRACK 12 AUDIO TITLE "Pride And Prejudice" PERFORMER "Royal Philharmonic Orchestra" INDEX 00 47:37:42 INDEX 01 47:39:25 TRACK 13 AUDIO TITLE "The Deer Hunter" PERFORMER "Royal Philharmonic Orchestra" INDEX 00 51:34:60 INDEX 01 51:36:43 TRACK 14 AUDIO TITLE "The Shawshank Redemption" PERFORMER "Royal Philharmonic Orchestra" INDEX 00 55:10:18 INDEX 01 55:12:01 TRACK 15 AUDIO TITLE "Four Weddings And A Funeral" PERFORMER "Royal Philharmonic Orchestra" INDEX 00 59:19:47 INDEX 01 59:21:30 TRACK 16 AUDIO TITLE "Romeo And Juliet" PERFORMER "Royal Philharmonic Orchestra" INDEX 00 62:28:73 INDEX 01 62:30:56 TRACK 17 AUDIO TITLE "Titanic" PERFORMER "Royal Philharmonic Orchestra" INDEX 00 68:18:38 INDEX 01 68:20:21


Трекер:  [ 20-Фев-2016 08:00 ]

  

Скачать .torrent

Размер .torrent файла 17 KB


Размер: 1.57 GB
Хэш (hash) релиза: 1a0ada1c24576294495f7e1786b0639bc4f6e19c

Еще никто не оставлял запись к записи скачать торрент . Будь первым!

!Обратная связь