Скачать порно через торрент [SeanCody.com] SC-2081 Jess Tops Randy Bareback UnionPeer.org бесплатно онлайн HD качество

Скачать новое порно 2015, 2014 новинки через торрент UnionPeer.org

Порно торрент бесплатно ЮнионПир.орг

Если у вас наблюдаются проблемы со скриншотами, переходом по ссылками, скачиванием торрентов - проблемы в блокировщике рекламы AdBlock. #хорошегоДня!


Статистика раздачи
Размер:  860 MB   |    Зарегистрирован:  1 год 6 месяцев   |    .torrent скачан:  26 раз   |   
Раздают:  1  
   
Загрузка...
 
Автор Сообщение

Galfimbul

avatar Galfimbul




[SeanCody.com] SC-2081 Jess Tops Randy Bareback


Имя актера: Jess, Randy
Номер на сайте: SC-2081
Подсайт и сайт: SeanCody.com

Год производства: 2016 г.
Жанр: Anal Sex, Bareback, Big Dicks, Blowjob, Cumshots, Kissing, Masturbation, Muscles, Tattoos, Uncut.
Продолжительность: 00:27:32

Описание: “I wasn’t kidding when I said I missed this place.” Jess let us know after he jumped on the couch with big dicked Randy. Randy right off the bat knew he was in for a workout. “Since I proved I can take a big dick you guys are just going to keep giving me huge cocks. I think you might be trying to break me!” Randy joked. “I’ll try to break you for sure!” Jess chimed in. These two went at it for a while and it ended up being a cum-filled film. “I just like to bust a nut! Who doesn’t?” Damn its good to have Jess back.

Доп. информация: официальный релиз - 11.02.2016

Тип HD видео: 720p
Формат видео: MP4
Видео: AVC, 1280x720 (16:9), 29.970 fps, 4 000 Kbps (0.145 bit/pixel)
Аудио: AAC LC, 48.0 KHz, 2 ch, 192 Kbps
Общее
Полное имя : SC-2081 Jess Tops Randy Bareback - 720p.mp4
Формат : MPEG-4
Профиль формата : Base Media
Идентификатор кодека : isom (isom/iso2/avc1/mp41)
Размер файла : 860 Мбайт
Продолжительность : 27 м.
Общий поток : 4363 Кбит/сек
Программа кодирования : Lavf56.33.101

Видео
Идентификатор : 1
Формат : AVC
Формат/Информация : Advanced Video Codec
Профиль формата : High@L4.1
Параметр CABAC формата : Да
Параметр ReFrames формата : 5 кадров
Идентификатор кодека : avc1
Идентификатор кодека/Информация : Advanced Video Coding
Продолжительность : 27 м.
Битрейт : 4000 Кбит/сек
Ширина : 1280 пикселей
Высота : 720 пикселей
Соотношение сторон : 16:9
Режим частоты кадров : Постоянный
Частота кадров : 29,970 (30000/1001) кадров/сек
Цветовое пространство : YUV
Субдискретизация насыщенности : 4:2:0
Битовая глубина : 8 бит
Тип развёртки : Прогрессивная
Бит/(Пиксели*Кадры) : 0.145
Размер потока : 785 Мбайт (91%)
Библиотека кодирования : x264 core 146 r2538 121396c
Настройки программы : cabac=1 / ref=5 / deblock=1:0:0 / analyse=0x3:0x113 / me=umh / subme=8 / psy=1 / psy_rd=1.00:0.00 / mixed_ref=1 / me_range=16 / chroma_me=1 / trellis=1 / 8x8dct=1 / cqm=0 / deadzone=21,11 / fast_pskip=1 / chroma_qp_offset=-2 / threads=24 / lookahead_threads=4 / sliced_threads=0 / nr=0 / decimate=1 / interlaced=0 / bluray_compat=0 / constrained_intra=0 / bframes=3 / b_pyramid=2 / b_adapt=2 / b_bias=0 / direct=3 / weightb=1 / open_gop=0 / weightp=2 / keyint=60 / keyint_min=6 / scenecut=40 / intra_refresh=0 / rc_lookahead=50 / rc=abr / mbtree=1 / bitrate=4000 / ratetol=1.0 / qcomp=0.60 / qpmin=0 / qpmax=69 / qpstep=4 / ip_ratio=1.40 / aq=1:1.00
Язык : English
Дата пометки : UTC 2016-02-11 01:03:21

Аудио
Идентификатор : 2
Формат : AAC
Формат/Информация : Advanced Audio Codec
Профиль формата : LC
Идентификатор кодека : 40
Продолжительность : 27 м.
Duration_LastFrame : -9 мс.
Вид битрейта : Постоянный
Битрейт : 192 Кбит/сек
Каналы : 2 канала
Расположение каналов : Front: L R
Частота : 48,0 КГц
Частота кадров : 46,875 кадров/сек (1024 spf)
Метод сжатия : С потерями
Размер потока : 37,8 Мбайт (4%)
Язык : English
Default : Да
Alternate group : 1
Дата пометки : UTC 2016-02-11 01:03:21

Прочее #1
Идентификатор : 65536
Тип : Hint
Формат : RTP
Идентификатор кодека : rtp
Продолжительность : 27 м.
Дата кодирования : UTC 2016-02-11 01:03:18
Дата пометки : UTC 2016-02-11 01:03:21

Прочее #2
Идентификатор : 65537
Тип : Hint
Формат : RTP
Идентификатор кодека : rtp
Продолжительность : 27 м.
Дата кодирования : UTC 2016-02-11 01:03:20
Дата пометки : UTC 2016-02-11 01:03:21
Вид битрейта : VBR



Трекер:  [ 12-Фев-2016 01:30 ]

  

Скачать .torrent

Размер .torrent файла 17 KB


Размер: 860 MB
Хэш (hash) релиза: 81d4803cf51fa50f7886f483bd1326d6f872e151

Еще никто не оставлял запись к записи скачать торрент [SeanCody.com] SC-2081 Jess Tops Randy Bareback . Будь первым!

!Обратная связь