Скачать через торрент музыку Винил Vinyl бесплатно без регистрации torrent

Если у вас наблюдаются проблемы со скриншотами, переходом по ссылками, скачиванием торрентов - проблемы в блокировщике рекламы AdBlock. #хорошегоДня!


Статистика раздачи
Размер:  400 MB   |    Зарегистрирован:  1 год 7 месяцев   |    .torrent скачан:  117 раз   |   
Раздают:  1  
   
Загрузка...
 
Автор Сообщение

Galfimbul

avatar Galfimbul


Винил / Vinyl

Название альбома: VINYL: Music from the HBO Original Series - Volume 1
Жанр: Soundtrack
Год выпуска диска: 2016
Год выпуска фильма: 2016
Страна-производитель диска: USA
Издатель (лейбл): Atlantic/Warner Bros.
Номер по каталогу: 553328-2
Аудиокодек: FLAC (*.flac)
Тип рипа: tracks+.cue
Битрейт аудио: lossless
Продолжительность: 01:02:10
Источник: сетевой торрент (Кинозал.ТВ)
Наличие сканов в содержимом раздачи: нет

http://www.hbo.com/vinyl

Треклист:
01. Ty Taylor - The World Is Yours (2:59)
02. David Johansen - Personality Crisis (3:45)
03. Kaleo - No Good (3:55)
04. Sturgill Simpson - Sugar Daddy (Theme from Vinyl) (3:45)
05. Ruth Brown - Mama He Treats Your Daughter Mean (2:58)
06. Otis Redding - Mr. Pitiful (2:32)
07. Dee Dee Warwick - Suspicious Minds (3:17)
08. Mott The Hoople - All the Way from Memphis (4:58)
09. David Johansen - Stranded in the Jungle (4:45)
10. Chris Kenner - I Like It Like That (1:57)
11. Ty Taylor - Cha Cha Twist (2:38)
12. The Jimmy Castor Bunch - It's Just Begun (3:44)
13. Soda Machine - Want Ads (2:58)
14. The Meters - Hand Clapping Song (2:56)
15. Soda Machine - Slippin' Into Darkness (3:46)
16. The Edgar Winter Group - Frankenstein (4:46)
17. Nasty Bits - Rotten Apple (2:12)
18. Foghat - I Just Want to Make Love to You (4:19)
X Lossless Decoder version 20151214 (149.1)

XLD extraction logfile from 2016-02-10 21:28:38 -0500

Various Artists / Vinyl: Music From The HBO Original Series - Volume 1

Used drive : MATSHITA DVD-R UJ-8A8 (revision HA13)Media type : Pressed CD

Ripper mode : XLD Secure RipperDisable audio cache : OK for the drive with a cache less than 1375KiBMake use of C2 pointers : NORead offset correction : 102Max retry count : 100Gap status : Analyzed, Appended (except HTOA)

TOC of the extracted CD Track | Start | Length | Start sector | End sector --------------------------------------------------------- 1 | 00:00:00 | 02:58:70 | 0 | 13419 2 | 02:58:70 | 03:44:73 | 13420 | 30292 3 | 06:43:68 | 03:55:11 | 30293 | 47928 4 | 10:39:04 | 03:45:20 | 47929 | 64823 5 | 14:24:24 | 02:57:39 | 64824 | 78137 6 | 17:21:63 | 02:31:48 | 78138 | 89510 7 | 19:53:36 | 03:17:24 | 89511 | 104309 8 | 23:10:60 | 04:58:15 | 104310 | 126674 9 | 28:09:00 | 04:44:49 | 126675 | 148023 10 | 32:53:49 | 01:57:36 | 148024 | 156834 11 | 34:51:10 | 02:38:34 | 156835 | 168718 12 | 37:29:44 | 03:43:61 | 168719 | 185504 13 | 41:13:30 | 02:58:08 | 185505 | 198862 14 | 44:11:38 | 02:55:57 | 198863 | 212044 15 | 47:07:20 | 03:45:56 | 212045 | 228975 16 | 50:53:01 | 04:46:18 | 228976 | 250443 17 | 55:39:19 | 02:12:27 | 250444 | 260370 18 | 57:51:46 | 04:19:26 | 260371 | 279821

AccurateRip Summary Disc not found in AccurateRip DB.

All Tracks Album gain : -9.51 dB Peak : 1.000000 Statistics Read error : 0 Jitter error (maybe fixed) : 0 Retry sector count : 0 Damaged sector count : 0

Track 01 Filename : /Users/baconfat/Desktop/XLD rips/Various Artists - Vinyl: Music From The HBO Original Series - Volume 1 (2016) [FLAC]/01 - Ty Taylor - The World Is Yours.flac Pre-gap length : 00:02:00

Track gain : -10.88 dB Peak : 0.999878 CRC32 hash (test run) : 536CAA90 CRC32 hash : 536CAA90 CRC32 hash (skip zero) : 93889492 AccurateRip v1 signature : F7228DC6 AccurateRip v2 signature : C3C04205 ->Track not present in AccurateRip database. Statistics Read error : 0 Jitter error (maybe fixed) : 0 Retry sector count : 0 Damaged sector count : 0

Track 02 Filename : /Users/baconfat/Desktop/XLD rips/Various Artists - Vinyl: Music From The HBO Original Series - Volume 1 (2016) [FLAC]/02 - David Johansen - Personality Crisis.flac

Track gain : -10.43 dB Peak : 0.999878 CRC32 hash (test run) : E589FBC6 CRC32 hash : E589FBC6 CRC32 hash (skip zero) : 8A4CC26B AccurateRip v1 signature : 62FDF260 AccurateRip v2 signature : 8217F6A6 ->Track not present in AccurateRip database. Statistics Read error : 0 Jitter error (maybe fixed) : 0 Retry sector count : 0 Damaged sector count : 0

Track 03 Filename : /Users/baconfat/Desktop/XLD rips/Various Artists - Vinyl: Music From The HBO Original Series - Volume 1 (2016) [FLAC]/03 - Kaleo - No Good.flac

Track gain : -8.92 dB Peak : 0.878845 CRC32 hash (test run) : 7C49A7D4 CRC32 hash : 7C49A7D4 CRC32 hash (skip zero) : 6A7B0FE3 AccurateRip v1 signature : ECB10857 AccurateRip v2 signature : 737201AA ->Track not present in AccurateRip database. Statistics Read error : 0 Jitter error (maybe fixed) : 0 Retry sector count : 0 Damaged sector count : 0

Track 04 Filename : /Users/baconfat/Desktop/XLD rips/Various Artists - Vinyl: Music From The HBO Original Series - Volume 1 (2016) [FLAC]/04 - Sturgill Simpson - Sugar Daddy (Theme from Vinyl).flac

Track gain : -9.18 dB Peak : 1.000000 CRC32 hash (test run) : EA77C900 CRC32 hash : EA77C900 CRC32 hash (skip zero) : DEB4A40A AccurateRip v1 signature : 3CDC10B5 AccurateRip v2 signature : 571E9CAF ->Track not present in AccurateRip database. Statistics Read error : 0 Jitter error (maybe fixed) : 0 Retry sector count : 0 Damaged sector count : 0

Track 05 Filename : /Users/baconfat/Desktop/XLD rips/Various Artists - Vinyl: Music From The HBO Original Series - Volume 1 (2016) [FLAC]/05 - Ruth Brown - Mama He Treats Your Daughter Mean.flac

Track gain : -9.20 dB Peak : 0.999878 CRC32 hash (test run) : D05AFC80 CRC32 hash : D05AFC80 CRC32 hash (skip zero) : 42490EA9 AccurateRip v1 signature : 60A467A1 AccurateRip v2 signature : A788D28E ->Track not present in AccurateRip database. Statistics Read error : 0 Jitter error (maybe fixed) : 0 Retry sector count : 0 Damaged sector count : 0

Track 06 Filename : /Users/baconfat/Desktop/XLD rips/Various Artists - Vinyl: Music From The HBO Original Series - Volume 1 (2016) [FLAC]/06 - Otis Redding - Mr. Pitiful.flac

Track gain : -9.23 dB Peak : 0.999878 CRC32 hash (test run) : D17C8F69 CRC32 hash : D17C8F69 CRC32 hash (skip zero) : AA193254 AccurateRip v1 signature : 54A5AE7C AccurateRip v2 signature : 79B11A19 ->Track not present in AccurateRip database. Statistics Read error : 0 Jitter error (maybe fixed) : 0 Retry sector count : 0 Damaged sector count : 0

Track 07 Filename : /Users/baconfat/Desktop/XLD rips/Various Artists - Vinyl: Music From The HBO Original Series - Volume 1 (2016) [FLAC]/07 - Dee Dee Warwick - Suspicious Minds.flac

Track gain : -9.10 dB Peak : 0.999878 CRC32 hash (test run) : 46124E04 CRC32 hash : 46124E04 CRC32 hash (skip zero) : D32D8D16 AccurateRip v1 signature : 7065578D AccurateRip v2 signature : 3B73919A ->Track not present in AccurateRip database. Statistics Read error : 0 Jitter error (maybe fixed) : 0 Retry sector count : 0 Damaged sector count : 0

Track 08 Filename : /Users/baconfat/Desktop/XLD rips/Various Artists - Vinyl: Music From The HBO Original Series - Volume 1 (2016) [FLAC]/08 - Mott The Hoople - All the Way from Memphis.flac

Track gain : -10.16 dB Peak : 0.999878 CRC32 hash (test run) : F514CAE7 CRC32 hash : F514CAE7 CRC32 hash (skip zero) : 1D233B4F AccurateRip v1 signature : BF1AA727 AccurateRip v2 signature : 0D807CAB ->Track not present in AccurateRip database. Statistics Read error : 0 Jitter error (maybe fixed) : 0 Retry sector count : 0 Damaged sector count : 0

Track 09 Filename : /Users/baconfat/Desktop/XLD rips/Various Artists - Vinyl: Music From The HBO Original Series - Volume 1 (2016) [FLAC]/09 - David Johansen - Stranded in the Jungle.flac

Track gain : -9.22 dB Peak : 0.999878 CRC32 hash (test run) : E23A6C8A CRC32 hash : E23A6C8A CRC32 hash (skip zero) : 673EFEC5 AccurateRip v1 signature : BA164C66 AccurateRip v2 signature : 153B34D5 ->Track not present in AccurateRip database. Statistics Read error : 0 Jitter error (maybe fixed) : 0 Retry sector count : 0 Damaged sector count : 0

Track 10 Filename : /Users/baconfat/Desktop/XLD rips/Various Artists - Vinyl: Music From The HBO Original Series - Volume 1 (2016) [FLAC]/10 - Chris Kenner - I Like It Like That.flac

Track gain : -9.57 dB Peak : 0.999878 CRC32 hash (test run) : 90378129 CRC32 hash : 90378129 CRC32 hash (skip zero) : D8AEBC87 AccurateRip v1 signature : 42E218CC AccurateRip v2 signature : 665A7D01 ->Track not present in AccurateRip database. Statistics Read error : 0 Jitter error (maybe fixed) : 0 Retry sector count : 0 Damaged sector count : 0

Track 11 Filename : /Users/baconfat/Desktop/XLD rips/Various Artists - Vinyl: Music From The HBO Original Series - Volume 1 (2016) [FLAC]/11 - Ty Taylor - Cha Cha Twist.flac

Track gain : -8.90 dB Peak : 0.999878 CRC32 hash (test run) : 50FBE284 CRC32 hash : 50FBE284 CRC32 hash (skip zero) : 37D38EA6 AccurateRip v1 signature : E3DF8179 AccurateRip v2 signature : 7B370289 ->Track not present in AccurateRip database. Statistics Read error : 0 Jitter error (maybe fixed) : 0 Retry sector count : 0 Damaged sector count : 0

Track 12 Filename : /Users/baconfat/Desktop/XLD rips/Various Artists - Vinyl: Music From The HBO Original Series - Volume 1 (2016) [FLAC]/12 - The Jimmy Castor Bunch - It's Just Begun.flac

Track gain : -6.89 dB Peak : 0.999878 CRC32 hash (test run) : 7F2EB20B CRC32 hash : 7F2EB20B CRC32 hash (skip zero) : 5D5DEAE1 AccurateRip v1 signature : 5AF4EEAB AccurateRip v2 signature : 3570397D ->Track not present in AccurateRip database. Statistics Read error : 0 Jitter error (maybe fixed) : 0 Retry sector count : 0 Damaged sector count : 0

Track 13 Filename : /Users/baconfat/Desktop/XLD rips/Various Artists - Vinyl: Music From The HBO Original Series - Volume 1 (2016) [FLAC]/13 - Soda Machine - Want Ads.flac

Track gain : -9.03 dB Peak : 0.999878 CRC32 hash (test run) : 0C3C91E8 CRC32 hash : 0C3C91E8 CRC32 hash (skip zero) : 017B42BA AccurateRip v1 signature : 81862688 AccurateRip v2 signature : 9D9EDB8F ->Track not present in AccurateRip database. Statistics Read error : 0 Jitter error (maybe fixed) : 0 Retry sector count : 0 Damaged sector count : 0

Track 14 Filename : /Users/baconfat/Desktop/XLD rips/Various Artists - Vinyl: Music From The HBO Original Series - Volume 1 (2016) [FLAC]/14 - The Meters - Hand Clapping Song.flac

Track gain : -6.88 dB Peak : 0.999878 CRC32 hash (test run) : 61EB48C2 CRC32 hash : 61EB48C2 CRC32 hash (skip zero) : A8822741 AccurateRip v1 signature : 65F58ED3 AccurateRip v2 signature : EEC6DBCA ->Track not present in AccurateRip database. Statistics Read error : 0 Jitter error (maybe fixed) : 0 Retry sector count : 0 Damaged sector count : 0

Track 15 Filename : /Users/baconfat/Desktop/XLD rips/Various Artists - Vinyl: Music From The HBO Original Series - Volume 1 (2016) [FLAC]/15 - Soda Machine - Slippin' Into Darkness.flac

Track gain : -10.30 dB Peak : 0.999878 CRC32 hash (test run) : 68DF4552 CRC32 hash : 68DF4552 CRC32 hash (skip zero) : 23D1A6F3 AccurateRip v1 signature : F20B991A AccurateRip v2 signature : 6175E4BD ->Track not present in AccurateRip database. Statistics Read error : 0 Jitter error (maybe fixed) : 0 Retry sector count : 0 Damaged sector count : 0

Track 16 Filename : /Users/baconfat/Desktop/XLD rips/Various Artists - Vinyl: Music From The HBO Original Series - Volume 1 (2016) [FLAC]/16 - The Edgar Winter Group - Frankenstein.flac

Track gain : -8.21 dB Peak : 0.999878 CRC32 hash (test run) : 0C286D00 CRC32 hash : 0C286D00 CRC32 hash (skip zero) : 9E8E4151 AccurateRip v1 signature : A78CFB06 AccurateRip v2 signature : EC25976C ->Track not present in AccurateRip database. Statistics Read error : 0 Jitter error (maybe fixed) : 0 Retry sector count : 0 Damaged sector count : 0

Track 17 Filename : /Users/baconfat/Desktop/XLD rips/Various Artists - Vinyl: Music From The HBO Original Series - Volume 1 (2016) [FLAC]/17 - Nasty Bits - Rotten Apple.flac

Track gain : -10.32 dB Peak : 0.999878 CRC32 hash (test run) : 0DD0C131 CRC32 hash : 0DD0C131 CRC32 hash (skip zero) : 750AE6F1 AccurateRip v1 signature : E63C96B7 AccurateRip v2 signature : 8B718433 ->Track not present in AccurateRip database. Statistics Read error : 0 Jitter error (maybe fixed) : 0 Retry sector count : 0 Damaged sector count : 0

Track 18 Filename : /Users/baconfat/Desktop/XLD rips/Various Artists - Vinyl: Music From The HBO Original Series - Volume 1 (2016) [FLAC]/18 - Foghat - I Just Want to Make Love to You.flac

Track gain : -7.86 dB Peak : 0.999878 CRC32 hash (test run) : 2D732D0B CRC32 hash : 2D732D0B CRC32 hash (skip zero) : 2DF2BA4F AccurateRip v1 signature : 3D66D139 AccurateRip v2 signature : 2E0B0DBE ->Track not present in AccurateRip database. Statistics Read error : 0 Jitter error (maybe fixed) : 0 Retry sector count : 0 Damaged sector count : 0

No errors occurred

End of status report

-----BEGIN XLD SIGNATURE-----iPJjqu7OHkqchYxSAmL74LMpNltZyo4kE1aQcaZmvSoAfzyhWxRu.XBYxCfSOLRL6vfXQcqxkgVGPAaAmnnn1zm0zEd1MI0.NXgErPG-----END XLD SIGNATURE-----
TITLE "Vinyl: Music From The HBO Original Series - Volume 1"PERFORMER "Various Artists"CATALOG 0075678666629REM GENRE "Soundtrack"REM DATE "2016"REM DISCNUMBER 1REM TOTALDISCS 1REM DISCID F90E9212REM REPLAYGAIN_ALBUM_GAIN -9.51 dBREM REPLAYGAIN_ALBUM_PEAK 1.000000REM COMPILATION TRUEFILE "01 - Ty Taylor - The World Is Yours.flac" WAVE TRACK 01 AUDIO TITLE "The World Is Yours" PERFORMER "Ty Taylor" ISRC USAT21600052 REM REPLAYGAIN_TRACK_GAIN -10.88 dB REM REPLAYGAIN_TRACK_PEAK 0.999878 INDEX 01 00:00:00FILE "02 - David Johansen - Personality Crisis.flac" WAVE TRACK 02 AUDIO TITLE "Personality Crisis" PERFORMER "David Johansen" ISRC USAT21600053 REM REPLAYGAIN_TRACK_GAIN -10.43 dB REM REPLAYGAIN_TRACK_PEAK 0.999878 INDEX 01 00:00:00FILE "03 - Kaleo - No Good.flac" WAVE TRACK 03 AUDIO TITLE "No Good" PERFORMER "Kaleo" ISRC USAT21503921 REM REPLAYGAIN_TRACK_GAIN -8.92 dB REM REPLAYGAIN_TRACK_PEAK 0.878845 INDEX 01 00:00:00FILE "04 - Sturgill Simpson - Sugar Daddy (Theme from Vinyl).flac" WAVE TRACK 04 AUDIO TITLE "Sugar Daddy (Theme from Vinyl)" PERFORMER "Sturgill Simpson" ISRC USAT21600055 REM REPLAYGAIN_TRACK_GAIN -9.18 dB REM REPLAYGAIN_TRACK_PEAK 1.000000 INDEX 01 00:00:00FILE "05 - Ruth Brown - Mama He Treats Your Daughter Mean.flac" WAVE TRACK 05 AUDIO TITLE "Mama He Treats Your Daughter Mean" PERFORMER "Ruth Brown" ISRC USAT21600056 REM REPLAYGAIN_TRACK_GAIN -9.20 dB REM REPLAYGAIN_TRACK_PEAK 0.999878 INDEX 01 00:00:00FILE "06 - Otis Redding - Mr. Pitiful.flac" WAVE TRACK 06 AUDIO TITLE "Mr. Pitiful" PERFORMER "Otis Redding" ISRC USAT21600057 REM REPLAYGAIN_TRACK_GAIN -9.23 dB REM REPLAYGAIN_TRACK_PEAK 0.999878 INDEX 01 00:00:00FILE "07 - Dee Dee Warwick - Suspicious Minds.flac" WAVE TRACK 07 AUDIO TITLE "Suspicious Minds" PERFORMER "Dee Dee Warwick" ISRC USAT21600058 REM REPLAYGAIN_TRACK_GAIN -9.10 dB REM REPLAYGAIN_TRACK_PEAK 0.999878 INDEX 01 00:00:00FILE "08 - Mott The Hoople - All the Way from Memphis.flac" WAVE TRACK 08 AUDIO TITLE "All the Way from Memphis" PERFORMER "Mott The Hoople" ISRC USAT21600059 REM REPLAYGAIN_TRACK_GAIN -10.16 dB REM REPLAYGAIN_TRACK_PEAK 0.999878 INDEX 01 00:00:00FILE "09 - David Johansen - Stranded in the Jungle.flac" WAVE TRACK 09 AUDIO TITLE "Stranded in the Jungle" PERFORMER "David Johansen" ISRC USAT21600060 REM REPLAYGAIN_TRACK_GAIN -9.22 dB REM REPLAYGAIN_TRACK_PEAK 0.999878 INDEX 01 00:00:00FILE "10 - Chris Kenner - I Like It Like That.flac" WAVE TRACK 10 AUDIO TITLE "I Like It Like That" PERFORMER "Chris Kenner" ISRC USAT21600061 REM REPLAYGAIN_TRACK_GAIN -9.57 dB REM REPLAYGAIN_TRACK_PEAK 0.999878 INDEX 01 00:00:00FILE "11 - Ty Taylor - Cha Cha Twist.flac" WAVE TRACK 11 AUDIO TITLE "Cha Cha Twist" PERFORMER "Ty Taylor" ISRC USAT21600062 REM REPLAYGAIN_TRACK_GAIN -8.90 dB REM REPLAYGAIN_TRACK_PEAK 0.999878 INDEX 01 00:00:00FILE "12 - The Jimmy Castor Bunch - It's Just Begun.flac" WAVE TRACK 12 AUDIO TITLE "It's Just Begun" PERFORMER "The Jimmy Castor Bunch" ISRC USAT21600063 REM REPLAYGAIN_TRACK_GAIN -6.89 dB REM REPLAYGAIN_TRACK_PEAK 0.999878 INDEX 01 00:00:00FILE "13 - Soda Machine - Want Ads.flac" WAVE TRACK 13 AUDIO TITLE "Want Ads" PERFORMER "Soda Machine" ISRC USAT21600064 REM REPLAYGAIN_TRACK_GAIN -9.03 dB REM REPLAYGAIN_TRACK_PEAK 0.999878 INDEX 01 00:00:00FILE "14 - The Meters - Hand Clapping Song.flac" WAVE TRACK 14 AUDIO TITLE "Hand Clapping Song" PERFORMER "The Meters" ISRC USAT21600065 REM REPLAYGAIN_TRACK_GAIN -6.88 dB REM REPLAYGAIN_TRACK_PEAK 0.999878 INDEX 01 00:00:00FILE "15 - Soda Machine - Slippin' Into Darkness.flac" WAVE TRACK 15 AUDIO TITLE "Slippin' Into Darkness" PERFORMER "Soda Machine" ISRC USAT21600066 REM REPLAYGAIN_TRACK_GAIN -10.30 dB REM REPLAYGAIN_TRACK_PEAK 0.999878 INDEX 01 00:00:00FILE "16 - The Edgar Winter Group - Frankenstein.flac" WAVE TRACK 16 AUDIO TITLE "Frankenstein" PERFORMER "The Edgar Winter Group" ISRC USAT21600067 REM REPLAYGAIN_TRACK_GAIN -8.21 dB REM REPLAYGAIN_TRACK_PEAK 0.999878 INDEX 01 00:00:00FILE "17 - Nasty Bits - Rotten Apple.flac" WAVE TRACK 17 AUDIO TITLE "Rotten Apple" PERFORMER "Nasty Bits" ISRC USAT21600068 REM REPLAYGAIN_TRACK_GAIN -10.32 dB REM REPLAYGAIN_TRACK_PEAK 0.999878 INDEX 01 00:00:00FILE "18 - Foghat - I Just Want to Make Love to You.flac" WAVE TRACK 18 AUDIO TITLE "I Just Want to Make Love to You" PERFORMER "Foghat" ISRC USAT21600069 REM REPLAYGAIN_TRACK_GAIN -7.86 dB REM REPLAYGAIN_TRACK_PEAK 0.999878 INDEX 01 00:00:00
-----------------------

DON'T MODIFY THIS FILE

-----------------------

PERFORMER: auCDtect Task Manager, ver. 1.5.1RC6 build 1.5.1.7Copyright (c) 2008-2010 y-soft. All rights reservedhttp://y-soft.org

ANALYZER: auCDtect: CD records authenticity detector, version 0.8.2Copyright (c) 2004 Oleg Berngardt. All rights reserved.Copyright (c) 2004 Alexander Djourik. All rights reserved.

FILE: 01 - Ty Taylor - The World Is Yours.flac Size: 19481992 Hash: 3AD6AF53630FF1838CDD7A474A362E22 Accuracy: -m8 Conclusion: CDDA 99% Signature: 1C9D239DC402BA50247163E7D9330BBD45923B36FILE: 02 - David Johansen - Personality Crisis.flac Size: 29096332 Hash: 963186802BBEF6EA4BFA30C7FC07FCF7 Accuracy: -m8 Conclusion: CDDA 100% Signature: BDC0DD3EAF0BC6C8CEAB0D1E8E525D24A345CB8AFILE: 03 - Kaleo - No Good.flac Size: 28435481 Hash: 7EE807EAED35479694BECEC7AD8EB14B Accuracy: -m8 Conclusion: CDDA 100% Signature: 9495F16ACD7EB9FD0979347FF61CDC9BB7234F44FILE: 04 - Sturgill Simpson - Sugar Daddy (Theme from Vinyl).flac Size: 25262345 Hash: 4E6B9DFC5CE453DA2CA13039C9497E0E Accuracy: -m8 Conclusion: CDDA 100% Signature: F7A0046A4B34E4E88838312805735803B2C5AE3CFILE: 05 - Ruth Brown - Mama He Treats Your Daughter Mean.flac Size: 15447675 Hash: 763016B68E19A12E6CA26E999DAED3D7 Accuracy: -m8 Conclusion: CDDA 100% Signature: 785F6146563900DDDEDD27A318C151510F1D3724FILE: 06 - Otis Redding - Mr. Pitiful.flac Size: 17233584 Hash: 41482CC7DE5511640475A7AED8BED414 Accuracy: -m8 Conclusion: CDDA 100% Signature: B86EC6DB6F1EA86F0DE3015EBD27E3F83EC95BB7FILE: 07 - Dee Dee Warwick - Suspicious Minds.flac Size: 21852697 Hash: F39699B38C2FAD693FB8B04C4ADFB2D1 Accuracy: -m8 Conclusion: CDDA 100% Signature: CC1043B8305C3637DFE05A48A2AF4B7964818BEFFILE: 08 - Mott The Hoople - All the Way from Memphis.flac Size: 30527431 Hash: B479BE1862AD092519C09BF44C30AB06 Accuracy: -m8 Conclusion: MPEG 80% Signature: 048E96DC7E870DC4E960BAFD04F0AC7948D07102FILE: 09 - David Johansen - Stranded in the Jungle.flac Size: 35330023 Hash: 35FEF7343B0C4ADFD4AB16B052A7B289 Accuracy: -m8 Conclusion: CDDA 100% Signature: 5A65DF13B81BE535ADC1F533A5F595D5DC12CFD5FILE: 10 - Chris Kenner - I Like It Like That.flac Size: 6635980 Hash: 4BC35ADDAB9341096A67C1369ACEFCC9 Accuracy: -m8 Conclusion: CDDA 100% Signature: C22636B49C68E126D2B211998905D8DC145BC28DFILE: 11 - Ty Taylor - Cha Cha Twist.flac Size: 18743198 Hash: 22067B62E6D8CDB7FDA37580BF5293AE Accuracy: -m8 Conclusion: CDDA 100% Signature: 11DA48E5EFE7644F0C0F26BC76605EFD262F3A28FILE: 12 - The Jimmy Castor Bunch - It's Just Begun.flac Size: 25012186 Hash: 3ECD97BC12D2F934A3BB232E1F6E6A0A Accuracy: -m8 Conclusion: CDDA 100% Signature: 4CB4F6DA2D8E0B63258F20C06FCAFF93C4AE3934FILE: 13 - Soda Machine - Want Ads.flac Size: 22290061 Hash: CEE22EB509CF56746D6F48D6B5EF2712 Accuracy: -m8 Conclusion: MPEG 99% Signature: 048B91E54809863D3B3C6E5E2B83EFC4D36EBC11FILE: 14 - The Meters - Hand Clapping Song.flac Size: 18714704 Hash: CC9E69ABC1962C58A20F66C98A849408 Accuracy: -m8 Conclusion: CDDA 100% Signature: E407BFF258AB093D0A7DB4B58F1A289FBA5B266EFILE: 15 - Soda Machine - Slippin' Into Darkness.flac Size: 25198004 Hash: CB75770458A49456AE14E2656D166AB7 Accuracy: -m8 Conclusion: CDDA 99% Signature: 286B094EA5321588F60F8A6EC293E864E247267AFILE: 16 - The Edgar Winter Group - Frankenstein.flac Size: 31279658 Hash: 624EAE280520FD8165A74C6E4E018A5C Accuracy: -m8 Conclusion: CDDA 100% Signature: D2E50E21C147BF9A4E1B2BCF70E4E5AB285E611BFILE: 17 - Nasty Bits - Rotten Apple.flac Size: 15941291 Hash: 91A388B59B5B19B4BB7892260870AD43 Accuracy: -m8 Conclusion: MPEG 100% Signature: 0AB6D87F6D5A54098D4B30E112A10A71242E1416FILE: 18 - Foghat - I Just Want to Make Love to You.flac Size: 32826739 Hash: F30CC7041DA8AC2E66FF2AABE39F4395 Accuracy: -m8 Conclusion: CDDA 100% Signature: 372AD643AC83808D559255FA58B9D60A3BCA2D02
foobar2000 1.3.8 / Dynamic Range Meter 1.1.1log date: 2016-02-11 14:08:27

--------------------------------------------------------------------------------Analyzed: Chris Kenner / VINYL: Music from the HBO Original Series - Volume 1 (1) David Johansen / VINYL: Music from the HBO Original Series - Volume 1 (2-3) Dee Dee Warwick / VINYL: Music from the HBO Original Series - Volume 1 (4) Foghat / VINYL: Music from the HBO Original Series - Volume 1 (5) Kaleo / VINYL: Music from the HBO Original Series - Volume 1 (6) Mott The Hoople / VINYL: Music from the HBO Original Series - Volume 1 (7) Nasty Bits / VINYL: Music from the HBO Original Series - Volume 1 (8) Otis Redding / VINYL: Music from the HBO Original Series - Volume 1 (9) Ruth Brown / VINYL: Music from the HBO Original Series - Volume 1 (10) Soda Machine / VINYL: Music from the HBO Original Series - Volume 1 (11-12) Sturgill Simpson / VINYL: Music from the HBO Original Series - Volume 1 (13) The Edgar Winter Group / VINYL: Music from the HBO Original Series - Volume 1 (14) The Jimmy Castor Bunch / VINYL: Music from the HBO Original Series - Volume 1 (15) The Meters / VINYL: Music from the HBO Original Series - Volume 1 (16) Ty Taylor / VINYL: Music from the HBO Original Series - Volume 1 (17-18)--------------------------------------------------------------------------------

DR Peak RMS Duration Track--------------------------------------------------------------------------------DR7 0.00 dB -9.40 dB 1:57 10-I Like It Like ThatDR6 0.00 dB -7.86 dB 3:45 02-Personality CrisisDR7 0.00 dB -8.62 dB 4:45 09-Stranded in the JungleDR8 0.00 dB -9.79 dB 3:17 07-Suspicious MindsDR8 0.00 dB -9.95 dB 4:19 18-I Just Want to Make Love to YouDR6 -1.12 dB -8.37 dB 3:55 03-No GoodDR6 0.00 dB -8.58 dB 4:58 08-All the Way from MemphisDR6 0.00 dB -7.61 dB 2:12 17-Rotten AppleDR8 0.00 dB -9.57 dB 2:32 06-Mr. PitifulDR10 0.00 dB -12.15 dB 2:58 05-Mama He Treats Your Daughter MeanDR8 0.00 dB -9.71 dB 2:58 13-Want AdsDR6 0.00 dB -8.59 dB 3:46 15-Slippin' Into DarknessDR7 0.00 dB -9.41 dB 3:45 04-Sugar Daddy (Theme from Vinyl)DR9 0.00 dB -10.41 dB 4:46 16-FrankensteinDR11 0.00 dB -12.46 dB 3:44 12-It's Just BegunDR11 0.00 dB -13.20 dB 2:56 14-Hand Clapping SongDR7 0.00 dB -8.14 dB 2:59 01-The World Is YoursDR8 0.00 dB -9.11 dB 2:38 11-Cha Cha Twist--------------------------------------------------------------------------------

Number of tracks: 18Official DR value: DR8

Samplerate: 44100 HzChannels: 2Bits per sample: 16Bitrate: 941 kbpsCodec: FLAC================================================================================


Трекер:  [ 11-Фев-2016 15:00 ]

  

Скачать .torrent

Размер .torrent файла 10 KB


Размер: 400 MB
Хэш (hash) релиза: 9e34b1be5d371eb24fba649cc37159459445ac2f

Торренты, похожие на Винил Vinyl скачать торрент

Форум Название Автор Размер S L Добавлен
Саундтреки к фильмам и мультфильмам (lossless) ·· (Soundtrack) Винил / Vinyl (VINYL - The Essentials: Best of Season 1) - 2016, FLAC (tracks), lossless Galfimbul 419193594400 MB 0 0 1460783324

08:08

16-Апр-16

Саундтреки к фильмам и мультфильмам (mp3) ·· (Soundtrack/TV) Винил / Vinyl (Music from the HBO Original Series - Volume 1) (Various Artists) - 2016, MP3, 320 kbps Galfimbul 150810410144 MB 0 0 1456510146

21:09

26-Фев-16

Еще никто не оставлял запись к записи скачать торрент Винил Vinyl . Будь первым!

!Обратная связь