Скачать через торрент музыку Манга бесплатно без регистрации torrent

Если у вас наблюдаются проблемы со скриншотами, переходом по ссылками, скачиванием торрентов - проблемы в блокировщике рекламы AdBlock. #хорошегоДня!


Статистика раздачи
Размер:  261 MB   |    Зарегистрирован:  1 год 7 месяцев   |    .torrent скачан:  4 раза   |   
Раздают:  1  
   
Загрузка...
 
Автор Сообщение

Galfimbul

avatar Galfimbul


Манга

Жанр: Soundtrack
Год выпуска диска: 2005
Страна-производитель диска: Россия
Издатель (лейбл): Мистерия звука
Номер по каталогу: MZ 293-2
Аудиокодек: FLAC (*.flac)
Тип рипа: image+.cue
Битрейт аудио: lossless
Продолжительность: 00:42:11
Источник: собственный рип
Наличие сканов в содержимом раздачи: да (скачаны с дискогс)
Треклист:
01. Dubchairman - Absent [0:02:35.33]
02. Мои Ракеты Вверх - Isla De Encanta [0:01:58.65]
03. Dubchairman - В Последний Раз (dub) [0:02:03.14]
04. Dubchairman - Junky's Lullaby (ambient) [0:02:43.48]
05. Second Hand Band - C'est La Vida [0:02:27.10]
06. Mo'jah'head - Mo'jah'head [0:02:26.67]
07. Dubchairman - Everything Is Rung [0:04:07.52]
08. Second Hand Band - Corova [0:03:09.21]
09. Second Hand Band - Halloween Dub [0:02:47.74]
10. OMFO - Omnipresence [0:01:28.09]
11. Sur/Faces - Skin Remix [0:05:02.08]
12. Dubchairman - Postcard [0:03:19.22]
13. Second Hand Band - L'automne [0:03:38.43]
14. Second Hand Band - It Must Be Reggae [0:02:27.08]
15. Dubchairman - В Последний Раз [0:01:55.28]
Exact Audio Copy V1.0 beta 1 from 15. November 2010

EAC extraction logfile from 9. February 2016, 17:28

Various / Манга OST

Used drive : Optiarc DVD RW AD-5260S Adapter: 2 ID: 0

Read mode : SecureUtilize accurate stream : YesDefeat audio cache : YesMake use of C2 pointers : No

Read offset correction : 48Overread into Lead-In and Lead-Out : NoFill up missing offset samples with silence : YesDelete leading and trailing silent blocks : NoNull samples used in CRC calculations : YesUsed interface : Native Win32 interface for Win NT & 2000

Used output format : Internal WAV RoutinesSample format : 44.100 Hz; 16 Bit; Stereo

TOC of the extracted CD

Track | Start | Length | Start sector | End sector --------------------------------------------------------- 1 | 0:00.00 | 2:35.33 | 0 | 11657 2 | 2:35.33 | 1:58.65 | 11658 | 20572 3 | 4:34.23 | 2:03.14 | 20573 | 29811 4 | 6:37.37 | 2:43.48 | 29812 | 42084 5 | 9:21.10 | 2:27.10 | 42085 | 53119 6 | 11:48.20 | 2:26.67 | 53120 | 64136 7 | 14:15.12 | 4:07.52 | 64137 | 82713 8 | 18:22.64 | 3:09.21 | 82714 | 96909 9 | 21:32.10 | 2:47.74 | 96910 | 109508 10 | 24:20.09 | 1:28.09 | 109509 | 116117 11 | 25:48.18 | 5:02.08 | 116118 | 138775 12 | 30:50.26 | 3:19.22 | 138776 | 153722 13 | 34:09.48 | 3:38.43 | 153723 | 170115 14 | 37:48.16 | 2:27.08 | 170116 | 181148 15 | 40:15.24 | 1:55.28 | 181149 | 189801 16 | 44:42.52 | 0:08.01 | 201202 | 201802

Range status and errors

Selected range

Filename D:\Temp\Various - Манга OST.wav

Peak level 100.0 % Extraction speed 0.0 X Range quality 99.9 % Test CRC F49D5612 Copy CRC F49D5612 Copy OK

No errors occurred

AccurateRip summary

Track 1 not present in databaseTrack 2 not present in databaseTrack 3 not present in databaseTrack 4 not present in databaseTrack 5 not present in databaseTrack 6 not present in databaseTrack 7 not present in databaseTrack 8 not present in databaseTrack 9 not present in databaseTrack 10 not present in databaseTrack 11 not present in databaseTrack 12 not present in databaseTrack 13 not present in databaseTrack 14 not present in databaseTrack 15 not present in database

None of the tracks are present in the AccurateRip database

End of status report

==== Log checksum D4B08E34A898AA7D9EE9126C1DA18DC03DC575AFEA1D3C36C09A0EEC54503BF7 ====
AUDIOCHECKER v2.0 beta (build 457) - by Dester - opdester@freemail.hu~~~~~~~~~~~~~~~~~~~~~~~~~~~~~~~~~~-=== DO NOT EDIT THIS FILE! ===-

Path: ...\Temp

1 -=- Various - Манга OST.wav -=- CDDA (100%)

198903188


Трекер:  [ 10-Фев-2016 02:00 ]

  

Скачать .torrent

Размер .torrent файла 11 KB


Размер: 261 MB
Хэш (hash) релиза: 4da353b31bdc49c333d40783a7b1b062cdfe23ef

Торренты, похожие на Манга скачать торрент

Форум Название Автор Размер S L Добавлен
Rосk | Mеtаl | Аltеrnаtivе, Рunk, Indереndеnt (mр3) ·· (Rock / Стёб) Манго-Манго - Дискография, 15 релизов и бутлегов - 1988-2014, MP3, 192-320 kbps Galfimbul 21138732021.97 GB 1 1 1413864250

07:04

21-Окт-14

Саундтреки к аниме (mp3) ·· (Аниме,манга.) Azumanga Daioh Soundtracks, 2000-е, mp3 Galfimbul 672420324641 MB 0 0 1458170447

02:20

17-Мар-16

Еще никто не оставлял запись к записи скачать торрент Манга . Будь первым!

!Обратная связь