Скачать через торрент Триаж Х бесплатно Аниме Все серии на русском torrent

Если у вас наблюдаются проблемы со скриншотами, переходом по ссылками, скачиванием торрентов - проблемы в блокировщике рекламы AdBlock. #хорошегоДня!


Статистика раздачи
Размер:  437 MB   |    Зарегистрирован:  1 год 7 месяцев   |    .torrent скачан:  55 раз   |   
Раздают:  1  
   
Загрузка...
 
Автор Сообщение

Galfimbul

avatar Galfimbul



Триаж Х / Искусственный отбор / Triage X / トリアージX
Год выпуска: 2015 г.
Страна: Япония
Жанр: Экшн, Приключения, Этти, Школа
Тип: OVA
Продолжительность: 01 эп. по 00:23:25
Режиссер: Като Такао
Студия: Xebec
Перевод:
<ol class="post-ul">
Русские субтитры от Gerale & Komugi-chan
</ol>
Описание:
Никто не спорит, что преступность – болезнь общества, а организованная преступность - настоящая раковая опухоль. Обычные лекарства, а также биологические добавки, с которыми можно сравнить полицию, прокуратуру, органы государственной власти, на нее не действуют; нужны срочные и жесткие методы лечения, пока метастазы не расползлись по всему организму. Что ж, хирурги исправляют ошибки терапевтов – встречайте организацию народных мстителей «Черная метка»!

Не зря говорят, что медицина творит искусственный отбор, спасая тех, кто в природе давно бы умер. А вот коллеги из частной клиники доктора Мотидзуки спасают уже общество от тех, кто жить не должен, уничтожая мафиози и наркодилеров. При этом школьники-волонтеры Араси и Микото - это разъездная аптечная служба со свинцовыми пилюлями, главная сестра Саё мигом выписывает направления в морг, сексапильная Юко оперирует японской катаной, а ее подруга анестезиолог Мики избавляет от боли раз и навсегда – даже с километра! А в ваших краях такое лечение не требуется?
Информационные ссылки: World Art || AniDB || MAL
Качество: BDRip | Рип: [Ohys-Raws]
Тип релиза: Без хардсаба
Формат видео: MP4
Наличие линковки: Нет
Видео: AVC, 1280x720, ~2398 kbps, 23.976 fps [8 bit]
Аудио:
1. Japanese AAC, 48.0 KHz, ~207 kbps, 2 ch;
Субтитры:
<ol class="post-ul">
Russian: ASS, внешние;
</ol>
General Format : MPEG-4 Format profile : Base Media Codec ID : isom File size : 437 MiB Duration : 23mn 25s Overall bit rate mode : Variable Overall bit rate : 2 609 Kbps Encoded date : UTC 2015-11-16 09:14:55 Tagged date : UTC 2015-11-16 09:14:55 Video #1 ID : 1 Format : AVC Format/Info : Advanced Video Codec Format profile : Main@L4.1 Format settings, CABAC : Yes Format settings, ReFrames : 4 frames Codec ID : avc1 Codec ID/Info : Advanced Video Coding Duration : 23mn 25s Bit rate : 2 398 Kbps Maximum bit rate : 12.1 Mbps Width : 1 280 pixels Height : 720 pixels Display aspect ratio : 16:9 Frame rate mode : Constant Frame rate : 23.976 fps Color space : YUV Chroma subsampling : 4:2:0 Bit depth : 8 bits Scan type : Progressive Bits/(Pixel*Frame) : 0.109 Stream size : 402 MiB (92%) Writing library : x264 core 148 r2638 7599210 Encoding settings : cabac=1 / ref=3 / deblock=1:0:0 / analyse=0x1:0x131 / me=umh / subme=9 / psy=1 / psy_rd=1.00:0.00 / mixed_ref=1 / me_range=32 / chroma_me=1 / trellis=1 / 8x8dct=0 / cqm=0 / deadzone=21,11 / fast_pskip=1 / chroma_qp_offset=-2 / threads=12 / lookahead_threads=1 / sliced_threads=0 / nr=0 / decimate=1 / interlaced=0 / bluray_compat=0 / constrained_intra=0 / bframes=3 / b_pyramid=2 / b_adapt=1 / b_bias=0 / direct=1 / weightb=1 / open_gop=0 / weightp=2 / keyint=240 / keyint_min=1 / scenecut=40 / intra_refresh=0 / rc_lookahead=40 / rc=crf / mbtree=1 / crf=17.0 / qcomp=0.60 / qpmin=0 / qpmax=69 / qpstep=4 / ip_ratio=1.40 / aq=1:1.00 Encoded date : UTC 2015-11-16 09:14:55 Tagged date : UTC 2015-11-16 09:14:59 Audio #2 ID : 2 Format : AAC Format/Info : Advanced Audio Codec Format profile : LC Codec ID : 40 Duration : 23mn 25s Bit rate mode : Variable Bit rate : 207 Kbps Maximum bit rate : 254 Kbps Channel(s) : 2 channels Channel positions : Front: L R Sampling rate : 48.0 KHz Compression mode : Lossy Stream size : 34.7 MiB (8%) Language : Japanese Encoded date : UTC 2015-11-15 23:31:28 Tagged date : UTC 2015-11-16 09:14:59

01/11. Recollection XOXO


Трекер:  [ 09-Фев-2016 09:00 ]

  

Скачать .torrent

Размер .torrent файла 17 KB


Размер: 437 MB
Хэш (hash) релиза: f1686a5e2d7e04e212bc9e4aafdaf14736e70e45
Подписка на обновления:

Торренты, похожие на Триаж Х скачать торрент

Форум Название Автор Размер S L Добавлен
Аниме | HD Rips ·· Триаж Х / Triage X / Искусственный отбор (Като Такао) [OVA] [1 из 1] [Без хардсаба] [JAP+SUB] [2015 г., приключения, этти, BDRip] [1080p] Galfimbul 16522096671.54 GB 0 0 1455133125

22:38

10-Фев-16

Аниме | HD Rips ·· Триаж Х / Искусственный отбор / Triage X (Като Такао) [TV] [01-10 из 10] [Без хардсаба] [JAP+SUB] [2015 г., приключения, этти, BDRip] [1080p] Galfimbul 1401745015213.05 GB 0 0 1448417143

05:05

25-Ноя-15

Аниме | HD Rips ·· Триаж Х / Искусственный отбор / Triage X [TV] [01-10 из 10] [Без хардсаба] [JAP, SUB] [2015 г., Приключения, Этти, Школа, BDRip] [720p] Galfimbul 47451798934.42 GB 0 0 1448108968

15:29

21-Ноя-15

Аниме | Rips ·· Триаж Х / Искусственный отбор / Triage X [TV] [07 из 10] [Без хардсаба] [RUS(ext), JAP] & [06 из 12] [SUB] [2015 г., Приключения, Этти, Школа, HDTVRip] [720p] Galfimbul 32887143833.06 GB 0 0 1432525381

06:43

25-Май-15

Аниме | Rips ·· Триаж Х / Искусственный отбор / Triage X [TV] [2 из 10] [Без хардсаба] [RUS(ext), JAP, SUB] [2015 г., Приключения, Этти, Школа, HDTVRip] [720p] Galfimbul 870759782830 MB 0 0 1429889268

18:27

24-Апр-15

Аниме | Rips ·· Триаж Х / Искусственный отбор / Triage X [TV] [2 из 10] [Без хардсаба] [RUS(int), JAP, SUB] [2015 г., Приключения, Этти, Школа, WEBRip] [720p] Galfimbul 870585953830 MB 0 0 1429755509

05:18

23-Апр-15

Аниме | HD Rips ·· Триаж Х / Искусственный отбор / Triage X (Като Такао) [TV] [2 из >10] [без хардсаба] [JAP+SUB] [2015 г., приключения, этти, школа, WEBRip] [720p] Galfimbul 672953524642 MB 0 0 1429135898

01:11

16-Апр-15

Аниме | Rips ·· Триаж Х / Искусственный отбор / Triage X [TV] [Без хардсаба] [RUS(int)] [2015 г., приключения, этти, школа., WEBRip] Galfimbul 340649228325 MB 0 0 1428749536

13:52

11-Апр-15

Еще никто не оставлял запись к записи скачать торрент Триаж Х . Будь первым!

!Обратная связь