Скачать через торрент А все-таки город вертится Soredemo Machi wa Mawatteiru бесплатно Аниме Все серии на русском torrent

Если у вас наблюдаются проблемы со скриншотами, переходом по ссылками, скачиванием торрентов - проблемы в блокировщике рекламы AdBlock. #хорошегоДня!


Статистика раздачи
Размер:  79.27 GB   |    Зарегистрирован:  1 год 10 месяцев   |    .torrent скачан:  14 раз   |   
Раздают:  1  
   
Загрузка...
 
Автор Сообщение

Galfimbul

avatar Galfimbul


А все-таки город вертится / Soredemo Machi wa Mawatteiru

Год выпуска: 2010
Страна: Япония
Жанр: комедия, повседневность
Тип: TV
Продолжительность: 12 эп. по 25 мин.
Озвучка:
<ol class="post-ul">
Одноголосая (муж) от Zack_Fair (AniDUB)
</ol>

Русские субтитры: есть (отдельным файлом, формат .ass)
Перевод:
<ol class="post-ul">
dai_kon, acony
</ol>
Хардсаб: Нет
Режиссер: Симбо Акиюки
Студия: SHAFT

Описание: Все началось с того, что немолодая, но энергичная Уки-сан решила переделать свою забегаловку во что-то современное. Для этого она мобилизовала знакомую школьницу Хотори Арасияму, дамы сменили интерьер, переоделись в передники – так родилось мейд-кафе «Приморское». Вот только Хотори при избытке энергии не блещет сообразительностью, в итоге в кафе прочно обосновался лишь один постоянный посетитель - явно неравнодушный к ней сосед и одноклассник Санада. Но стоило другой однокласснице, очкастой умнице Тосико Тацуно, зайти и увидеть за столиком ненаглядного Санаду, как в «Приморском» появилась еще одна горничная, она же крупный теоретик жанра!

Теперь очаг местной мейд-культуры медленно, но верно встает на ноги и становится одним из знаковых символов торгового квартала Маруко. Соседи и гости, учителя и школьники, бизнесмены и полицейские – самые разные люди находят в вечной круговерти городской жизни новую орбиту с центром в маленьком кафе. Ведь если есть где собраться и с кем поговорить обо всем на свете – на душе точно станет немножечко легче и светлее. В этом сериале не будет суперменов, призраков и пришельцев – жизнь и проблемы реальных людей гораздо интереснее!
© Hollow, World Art

Качество: Blu-Ray Remux
Формат: MKV
Видео кодек: AVC
Аудио кодек: FLAC (level 8)
Видео: 1920x1080 (16:9) 23,976 fps ~36,8 Mbps 8bit
Аудио:
Jap FLAC level8, 48000Hz, ~696 kbps 2ch
RUS (ext) AAC, 48000Hz, 192 Kbps, 2ch

Чаптеры присутствуют.
Руссукие субтитры и озвучка взяты из [url=...3394453]этой[/url] раздачи.
01. Кафе, наполненное счастьем: До
02. Дерзость дел о сексуальных домогательствах
03. Кошатник
04. Уравнение проклятья
05. Удивительно странная Тацуно Тошико
06. Обслуживание Пандоры
07. Ночное бегство влюбленных
08. Механический оркестр
09. Битва! Лихорадка от покупок
10. Пустота и вездесущий старик
11. Летняя ярость Кон
12. Город живет
Общее
Уникальный идентификатор : 171828858337677333132303981341386837089 (0x814508CBB39F5A6387950C2AF2658C61)
Полное имя : M:\pub\Video\Anime\Soredemo Machi wa Mawatte Iru\[anti-raws]Soredemo Machi wa Mawatte Iru ep.01[BDRemux].mkv
Формат : Matroska
Версия формата : Version 4 / Version 2
Размер файла : 6,49 Гбайт
Продолжительность : 24 м.
Режим общего битрейта : Переменный
Общий поток : 38,4 Мбит/сек
Дата кодирования : UTC 2016-01-12 19:13:22
Программа кодирования : mkvmerge v8.8.0 ('Wind at my back') 64bit
Библиотека кодирования : libebml v1.3.3 + libmatroska v1.4.4

Видео
Идентификатор : 2
Формат : AVC
Формат/Информация : Advanced Video Codec
Профиль формата : High@L4.1
Параметр CABAC формата : Да
Параметр ReFrames формата : 2 кадра
Идентификатор кодека : V_MPEG4/ISO/AVC
Продолжительность : 24 м.
Вид битрейта : Переменный
Битрейт : 37,7 Мбит/сек
Ширина : 1920 пикселей
Высота : 1080 пикселей
Соотношение сторон : 16:9
Режим частоты кадров : Постоянный
Частота кадров : 23,976 (24000/1001) кадра/сек
Цветовое пространство : YUV
Субдискретизация насыщенности : 4:2:0
Битовая глубина : 8 бит
Тип развёртки : Прогрессивная
Бит/(Пиксели*Кадры) : 0.758
Размер потока : 6,37 Гбайт (98%)
Default : Нет
Forced : Нет

Аудио
Идентификатор : 1
Формат : FLAC
Формат/Информация : Free Lossless Audio Codec
Идентификатор кодека : A_FLAC
Продолжительность : 24 м.
Вид битрейта : Переменный
Битрейт : 698 Кбит/сек
Каналы : 2 канала
Расположение каналов : Front: L R
Частота : 48,0 КГц
Частота кадров : 11,719 кадров/сек (4096 spf)
Битовая глубина : 16 бит
Размер потока : 121 Мбайт (2%)
Библиотека кодирования : libFLAC 1.2.1 (UTC 2007-09-17)
Язык : Japanese
Default : Да
Forced : Нет

Меню
00:00:00.000 : en:00:00:00.000
00:00:40.040 : en:00:00:40.040
00:02:10.005 : en:00:02:10.005
00:03:47.060 : en:00:03:47.060
00:08:57.704 : en:00:08:57.704
00:12:14.025 : en:00:12:14.025
00:13:37.233 : en:00:13:37.233
00:16:09.177 : en:00:16:09.177
00:21:10.019 : en:00:21:10.019
00:22:40.025 : en:00:22:40.025
00:23:41.045 : en:00:23:41.045
[url]...3564306[/url]
[url]...3394453[/url]
--BDRip

Эта раздача - BDRemux


Трекер:  [ 31-Янв-2016 17:30 ]

  

Скачать .torrent

Размер .torrent файла 108 KB


Размер: 79.27 GB
Хэш (hash) релиза: 9e8c65ca1998f33b5744f85830069fc9c99c1679
Подписка на обновления:

Торренты, похожие на А все-таки город вертится Soredemo Machi wa Mawatteiru скачать торрент

Форум Название Автор Размер S L Добавлен
Аниме | HD Rips ·· А все-таки город вертится / Soredemo Machi wa Mawatteiru [TV] [1-12 из 12][RUS(ext), JAP+SUB] [2010 г., комедия, повседневность, BDRip 1080p][любительская] L 2287385611721.3 GB 0 0 1309239861

08:44

28-Июн-11

Еще никто не оставлял запись к записи скачать торрент А все-таки город вертится Soredemo Machi wa Mawatteiru . Будь первым!

!Обратная связь