Скачать через торрент Чёрные метки Schwarzesmarken бесплатно Аниме Все серии на русском torrent

Если у вас наблюдаются проблемы со скриншотами, переходом по ссылками, скачиванием торрентов - проблемы в блокировщике рекламы AdBlock. #хорошегоДня!


Статистика раздачи
Размер:  1.36 GB   |    Зарегистрирован:  1 год 7 месяцев   |    .torrent скачан:  25 раз   |   
Раздают:  1  
   
Загрузка...
 
Автор Сообщение

Galfimbul

avatar Galfimbul


Чёрные метки / Schwarzesmarken / Schwarzes Marken

Страна: Япония
Год выпуска: 2016 г.
Жанр: приключения, фантастика, меха, драма
Тип: TV
Продолжительность: 12 эп. по ~25 мин.
Режиссер: Ватанабэ Тэцуя
Студия: Liden Films

Описание: Спин-офф аниме-сериала «Полное затмение», действия которого перенесены и разворачиваются в 1983 году. «Шварценмаркен» («Чёрные метки») — 666-ой специальный отряд армии ГДР, который противостоит полчищам BETA с помощью нетиповых тактик. Их цель — Люкс и Магнус, уничтожение которых отнимет у BETA преимущество высокой огневой мощи. Приказы «Шварценмаркена» неоспоримы, а сигналы бедствия союзников они игнорируют, если те хоть немного отвлекают от основного задания. Отряд под зловещим числом «666» пользуется истребителями МиГ-21, в то время, как командир отряда, Ирисдина Бернхард, пилотирует легендарный TSF первого поколения МиГ-21PF.

Качество: HDTVRip
Тип релиза: Без хардсаба
Формат видео: MP4
Наличие линковки: Нет
Релиз/Автор рипа: Leopard-Raws
Видео: x264 (8 bit), 1280x720, ~2700 Kbps, 23.976 fps
Аудио JAP: AAC, 48000 Hz, ~192 Kbps, 2 ch
Аудио RUS: AAC, 48000 Hz, ~192 Kbps, 2 ch; (внешними файлами); Озвучка: двухголосая от Snowly & NesTea (SHIZA Project)
Субтитры RUS 1: ASS, внешние; Переводчик: Jenia aka Zub; Редактор/Перевод песен: Oni (Fratelli)
Субтитры RUS 2: ASS, внешние; Переводчик: Elven_tankman; Редактор/Оформление: Koushin (Timecraft)
GeneralComplete name : C:\Documents and Settings\Администратор\Мои документы\Downloads\Schwarzesmarken\[Leopard-Raws] Schwarzesmarken - 01 RAW (TX 1280x720 x264 AAC).mp4Format : MPEG-4Format profile : Base MediaCodec ID : isomFile size : 496 MiBDuration : 24mn 14sOverall bit rate mode : VariableOverall bit rate : 2 858 KbpsEncoded date : UTC 2016-01-11 05:58:04Tagged date : UTC 2016-01-11 05:58:04

VideoID : 1Format : AVCFormat/Info : Advanced Video CodecFormat profile : High@L4.1Format settings, CABAC : YesFormat settings, ReFrames : 4 framesCodec ID : avc1Codec ID/Info : Advanced Video CodingDuration : 24mn 14sBit rate : 2 662 KbpsMaximum bit rate : 12.3 MbpsWidth : 1 280 pixelsHeight : 720 pixelsDisplay aspect ratio : 16:9Frame rate mode : ConstantFrame rate : 23.976 fpsColor space : YUVChroma subsampling : 4:2:0Bit depth : 8 bitsScan type : ProgressiveBits/(Pixel*Frame) : 0.120Stream size : 462 MiB (93%)Title : 264:fps=23.976@GPAC0.5.1-DEV-rev4929Writing library : x264 core 129 r2245+729M 1a52e03Encoding settings : cabac=1 / ref=4 / deblock=1:1:-1 / analyse=0x3:0x113 / me=umh / subme=9 / psy=1 / fade_compensate=0.00 / psy_rd=1.00:0.00 / mixed_ref=1 / me_range=24 / chroma_me=1 / trellis=2 / 8x8dct=1 / cqm=0 / deadzone=21,11 / fast_pskip=1 / chroma_qp_offset=-2 / threads=8 / lookahead_threads=1 / sliced_threads=0 / nr=0 / decimate=1 / interlaced=0 / bluray_compat=0 / constrained_intra=0 / fgo=0 / bframes=9 / b_pyramid=2 / b_adapt=2 / b_bias=0 / direct=1 / weightb=1 / open_gop=0 / weightp=2 / keyint=240 / keyint_min=24 / scenecut=40 / intra_refresh=0 / rc=crf / mbtree=0 / crf=18.5 / qcomp=0.72 / qpmin=0 / qpmax=69 / qpstep=4 / ip_ratio=1.40 / pb_ratio=1.30 / aq=1:0.85Encoded date : UTC 2016-01-11 05:58:04Tagged date : UTC 2016-01-11 05:58:07Color primaries : BT.709Transfer characteristics : BT.709Matrix coefficients : BT.709

AudioID : 2Format : AACFormat/Info : Advanced Audio CodecFormat profile : LCCodec ID : 40Duration : 24mn 14sBit rate mode : VariableBit rate : 192 KbpsMaximum bit rate : 229 KbpsChannel count : 2 channelsChannel positions : Front: L RSampling rate : 48.0 KHzCompression mode : LossyStream size : 33.3 MiB (7%)Language : JapaneseEncoded date : UTC 2016-01-10 17:00:29Tagged date : UTC 2016-01-11 05:58:07
01. Первый эпизод
02. Второй эпизод
03. Третий эпизод
[url]...5149069[/url] - альтернативная озвучка -Sample-


Трекер:  [ 26-Янв-2016 11:00 ]

  

Скачать .torrent

Размер .torrent файла 15 KB


Размер: 1.36 GB
Хэш (hash) релиза: 6ab776159fa78460a6ed4561ad142b6ffe280d45
Подписка на обновления:

Еще никто не оставлял запись к записи скачать торрент Чёрные метки Schwarzesmarken . Будь первым!

!Обратная связь