Скачать через торрент Звездная фантазия онлайн 2 Phantasy Star Online 2 The Animation бесплатно Аниме Все серии на русском torrent

Если у вас наблюдаются проблемы со скриншотами, переходом по ссылками, скачиванием торрентов - проблемы в блокировщике рекламы AdBlock. #хорошегоДня!


Статистика раздачи
Размер:  438 MB   |    Зарегистрирован:  1 год 8 месяцев   |    .torrent скачан:  22 раза   |   
Раздают:  1  
   
Загрузка...
 
Автор Сообщение

Galfimbul

avatar Galfimbul


Звездная фантазия онлайн 2 / Phantasy Star Online 2 The Animation / Фантастическая Звезда Online 2

Страна: Япония
Год выпуска: с 8 янв. 2016 г. по 25 марта 2016 г.
Жанр: экшн, игра, РПГ
Тип: TV
Продолжительность: 12 эп. по 25 мин.

Режиссер: Кавагути Кэйитиро
Студия: Telecom Animation Film

Описание:
В мире «Фантастическая звезда онлайн 2» представители нескольких рас сражаются друг с другом при помощи особой энергии, известной как «фотоны». Вооруженные высокотехнологичными боевыми костюмами и убийственным энергетическим оружием, команды игроков способны побеждать толпы монстров, прокачивать навыки и вместе двигаться к общим целям. Неудивительно, что такое времяпрепровождение весьма привлекательно для молодых людей обоего пола, желающих применить свои таланты где-то за пределами скучной повседневности.

История, берущая начало на Земле в ближайшем будущем, повествует о старшекласснике Ицки Тачибане и его товарищах по школе, объединивших силы и погрузившихся в мир «Фантазии Звезд Онлайн». У каждого из них свои мечты и чаяния, свои достоинства и недостатки, но всех объединяет одно — целеустремленность и желание во что бы то ни стало стать сильнее. Перед ними долгий путь и множество сражений, в которых Ицки и его друзья смогут проявить себя с лучшей стороны и приобрести множество полезных тактических и боевых навыков.

Качество: HDTVRip
Тип релиза: Без хардсаба
Формат видео: MP4
Наличие линковки: Нет
Релиз/Автор рипа: Leopard-Raws
Видео: H264, 1280x720, 2304 kbps, 23.976 fps, 8 bit
Аудио: AAC, 192 kbps, 48000 Hz, stereo Язык: Японский
Субтитры: ass, внешние Язык субтитров: русский
Переводчик: Ramix,
Редактор: Shikamaru Nara

Не забывайте "благодарить" и писать комментарии. Это стимулирует дальнейшие раздачи.
General
Complete name                  : F:\anime\_1\[Leopard-Raws] Phantasy Star Online 2 The Animation\[Leopard-Raws] Phantasy Star Online 2 The Animation - 01 RAW (TBS 1280x720 x264 AAC).mp4
Format                         : MPEG-4
Format profile                 : Base Media
Codec ID                       : isom
File size                      : 438 MiB
Duration                       : 24mn 30s
Overall bit rate mode          : Variable
Overall bit rate               : 2 500 Kbps
Encoded date                   : UTC 2016-01-07 22:22:37
Tagged date                    : UTC 2016-01-07 22:22:37

Video
ID                             : 1
Format                         : AVC
Format/Info                    : Advanced Video Codec
Format profile                 : High@L4.1
Format settings, CABAC         : Yes
Format settings, ReFrames      : 4 frames
Codec ID                       : avc1
Codec ID/Info                  : Advanced Video Coding
Duration                       : 24mn 29s
Bit rate                       : 2 304 Kbps
Maximum bit rate               : 19.0 Mbps
Width                          : 1 280 pixels
Height                         : 720 pixels
Display aspect ratio           : 16:9
Frame rate mode                : Constant
Frame rate                     : 23.976 fps
Color space                    : YUV
Chroma subsampling             : 4:2:0
Bit depth                      : 8 bits
Scan type                      : Progressive
Bits/(Pixel*Frame)             : 0.104
Stream size                    : 404 MiB (92%)
Title                          : 264:fps=23.976@GPAC0.5.1-DEV-rev4929
Writing library                : x264 core 129 r2245+729M 1a52e03
Encoding settings              : cabac=1 / ref=4 / deblock=1:1:-1 / analyse=0x3:0x113 / me=umh / subme=9 / psy=1 / fade_compensate=0.00 / psy_rd=1.00:0.00 / mixed_ref=1 / me_range=24 / chroma_me=1 / trellis=2 / 8x8dct=1 / cqm=0 / deadzone=21,11 / fast_pskip=1 / chroma_qp_offset=-2 / threads=8 / lookahead_threads=1 / sliced_threads=0 / nr=0 / decimate=1 / interlaced=0 / bluray_compat=0 / constrained_intra=0 / fgo=0 / bframes=9 / b_pyramid=2 / b_adapt=2 / b_bias=0 / direct=1 / weightb=1 / open_gop=0 / weightp=2 / keyint=240 / keyint_min=24 / scenecut=40 / intra_refresh=0 / rc=crf / mbtree=0 / crf=18.5 / qcomp=0.72 / qpmin=0 / qpmax=69 / qpstep=4 / ip_ratio=1.40 / pb_ratio=1.30 / aq=1:0.85
Encoded date                   : UTC 2016-01-07 22:22:37
Tagged date                    : UTC 2016-01-07 22:22:42
Color range                    : Limited
Color primaries                : BT.709
Transfer characteristics       : BT.709
Matrix coefficients            : BT.709

Audio
ID                             : 2
Format                         : AAC
Format/Info                    : Advanced Audio Codec
Format profile                 : LC
Codec ID                       : 40
Duration                       : 24mn 30s
Bit rate mode                  : Variable
Bit rate                       : 192 Kbps
Maximum bit rate               : 228 Kbps
Channel(s)                     : 2 channels
Channel positions              : Front: L R
Sampling rate                  : 48.0 KHz
Compression mode               : Lossy
Stream size                    : 33.6 MiB (8%)
Language                       : Japanese
01 The RPG That Begins with "Nice to Meet You" 08.01.2016
02 The Aloof Warrior 15.01.2016
03 Roleplay 22.01.2016
04


Трекер:  [ 22-Янв-2016 13:30 ]

  

Скачать .torrent

Размер .torrent файла 18 KB


Размер: 438 MB
Хэш (hash) релиза: fdd05db8c0f284c3165f114965cd99662dd194d7
Подписка на обновления:

Торренты, похожие на Звездная фантазия онлайн 2 Phantasy Star Online 2 The Animation скачать торрент

Форум Название Автор Размер S L Добавлен
Аниме | Rips ·· Звёздная фантазия онлайн 2 / Phantasy Star Online 2 The Animation / Фантастическая Звезда Online 2 [TV] [01-12 из 12] [Без хардсаба] [RUS(int), JAP+SUB] [2016 г., фантастика, приключения, HDTVRip] [720p] Galfimbul 59609113125.55 GB 0 0 1466327437

12:10

19-Июн-16

Аниме | Rips ·· Звёздная фантазия онлайн 2 / Phantasy Star Online 2 The Animation / Фантастическая Звезда Online 2 [TV] [01-10 из 12] [Без хардсаба] [RUS(int), JAP+SUB] [2016 г., фантастика, приключения, HDTVRip] [720p] Galfimbul 49667520274.63 GB 0 0 1465543725

10:28

10-Июн-16

Аниме | HD Rips ·· Звездная фантазия онлайн 2 / Phantasy Star Online 2 The Animation / Фантастическая Звезда Online 2 [TV] [1-12 из 12] [Без хардсаба] [JAP, SUB] [2016 г., фантастика, приключения, WEBRip] [720p] Galfimbul 41345371103.85 GB 0 0 1459700218

19:16

3-Апр-16

Аниме | Rips ·· Звёздная фантазия онлайн 2 / Phantasy Star Online 2 The Animation / Фантастическая Звезда Online 2 [TV] [01-07 из 12] [Без хардсаба] [RUS(int), JAP+SUB] [2016 г., фантастика, приключения, HDTVRip] [720p] Galfimbul 34853191703.25 GB 0 0 1458378111

12:01

19-Мар-16

Аниме | HD Rips ·· Звездная фантазия онлайн 2 / Phantasy Star Online 2 The Animation / Фантастическая Звезда Online 2 [TV] [09 из 12] [Без хардсаба] [JAP+SUB] [2016 г., Фантастика, приключения, WEBRip] [1080p] Galfimbul 52255430244.87 GB 0 0 1457964385

17:06

14-Мар-16

Аниме | Rips ·· Звездная фантазия онлайн 2 / Phantasy Star Online 2 The Animation / Фантастическая Звезда Online 2 [TV] [05 из 12] [Без хардсаба] [RUS(int), JAP+SUB] [2016 г., фантастика, экшн, игра, РПГ, HDTVRip] [720p] Galfimbul 24984143792.33 GB 0 0 1455957912

11:45

20-Фев-16

Аниме | Rips ·· Звездная фантазия онлайн 2 / Phantasy Star Online 2 The Animation / Фантастическая Звезда Online 2 [TV] [04 из 12] [Без хардсаба] [RUS(int), JAP+SUB] [2016 г., экшн, игра, РПГ, HDTVRip] [720p] Galfimbul 20012790141.86 GB 0 0 1455262809

10:40

12-Фев-16

Еще никто не оставлял запись к записи скачать торрент Звездная фантазия онлайн 2 Phantasy Star Online 2 The Animation . Будь первым!

!Обратная связь