Скачать через торрент Четыре ритма сквозь синеву Ao no Kanata no Four Rhythm бесплатно Аниме Все серии на русском torrent

Если у вас наблюдаются проблемы со скриншотами, переходом по ссылками, скачиванием торрентов - проблемы в блокировщике рекламы AdBlock. #хорошегоДня!


Статистика раздачи
Размер:  727 MB   |    Зарегистрирован:  1 год 10 месяцев   |    .torrent скачан:  27 раз   |   
Раздают:  1  
   
Загрузка...
 
Автор Сообщение

Galfimbul

avatar Galfimbul


Четыре ритма сквозь синеву / Ao no Kanata no Four Rhythm / Four Rhythm Across the Blue

Страна: Япония
Год выпуска: 2016 г.
Жанр: фантастика, романтика, школа, драма
Тип: TV
Продолжительность: 12 эп. по ~24 мин.
Режиссер: Ойдзаки Фумитоси
Студия: Gonzo

Описание: Наверное, каждый когда-то мечтал научиться летать: полет манит к себе всех, даже тех, кто боится высоты, и обещает незабываемые впечатления. Что ж, в мире, где развивается наша история, нет нужды мечтать о крыльях — здесь человеку подняться в небо ничуть не сложнее, чем передвигаться по земле, нужно лишь запастись терпением и овладеть искусством полета. А для тех, кто в совершенстве овладел этой премудростью, существует даже воздушный цирк — впечатляющее и манящее зрелище, которое показывают истинные таланты.

Одним из таких талантов был Масая Хината — юноша, которому когда-то прочили блестящее будущее в воздушном цирке и который обожает летать. К несчастью, несколько лет назад он пережил неприятное потрясение и потерпел сокрушительное поражение на соревнованиях, после чего оставил свою мечту. Все меняется, когда Масая встречает Аску Курашину — новую ученицу, которая просит его научить ее летать. Пойдя девушке навстречу, Масая вновь погружается в мир воздушного цирка и заново обретает свою давнюю мечту.

Качество: HDTVRip
Тип релиза: Без хардсаба
Формат видео: MP4
Наличие линковки: Нет
Релиз/Автор рипа: Leopard-Raws
Видео: x264 (8 bit), 1280x720, ~1800 Kbps, 23.976 fps
Аудио JAP: AAC, 48000 Hz, ~192 Kbps, 2 ch
Аудио RUS: AAC, 48000 Hz, ~192 Kbps, 2 ch (внешними файлами); Озвучка: трёхголосая от Zendos & Eladiel & Ruri (Onibaku Group)
Субтитры RUS: ASS, внешние; Переводчик: Empty; Редактор: Ryuji (Dreamers Team)
GeneralComplete name : C:\Documents and Settings\Администратор\Мои документы\Downloads\Ao no Kanata no Four Rhythm\[Leopard-Raws] Ao no Kanata no Four Rhythm - 01 RAW (TX 1280x720 x264 AAC).mp4Format : MPEG-4Format profile : Base MediaCodec ID : isomFile size : 343 MiBDuration : 24mn 14sOverall bit rate mode : VariableOverall bit rate : 1 980 KbpsEncoded date : UTC 2016-01-12 05:52:18Tagged date : UTC 2016-01-12 05:52:18

VideoID : 1Format : AVCFormat/Info : Advanced Video CodecFormat profile : High@L4.1Format settings, CABAC : YesFormat settings, ReFrames : 4 framesCodec ID : avc1Codec ID/Info : Advanced Video CodingDuration : 24mn 14sBit rate : 1 784 KbpsMaximum bit rate : 14.0 MbpsWidth : 1 280 pixelsHeight : 720 pixelsDisplay aspect ratio : 16:9Frame rate mode : ConstantFrame rate : 23.976 fpsColor space : YUVChroma subsampling : 4:2:0Bit depth : 8 bitsScan type : ProgressiveBits/(Pixel*Frame) : 0.081Stream size : 309 MiB (90%)Title : 264:fps=23.976@GPAC0.5.1-DEV-rev4929Writing library : x264 core 129 r2245+729M 1a52e03Encoding settings : cabac=1 / ref=4 / deblock=1:1:-1 / analyse=0x3:0x113 / me=umh / subme=9 / psy=1 / fade_compensate=0.00 / psy_rd=1.00:0.00 / mixed_ref=1 / me_range=24 / chroma_me=1 / trellis=2 / 8x8dct=1 / cqm=0 / deadzone=21,11 / fast_pskip=1 / chroma_qp_offset=-2 / threads=8 / lookahead_threads=1 / sliced_threads=0 / nr=0 / decimate=1 / interlaced=0 / bluray_compat=0 / constrained_intra=0 / fgo=0 / bframes=9 / b_pyramid=2 / b_adapt=2 / b_bias=0 / direct=1 / weightb=1 / open_gop=0 / weightp=2 / keyint=240 / keyint_min=24 / scenecut=40 / intra_refresh=0 / rc=crf / mbtree=0 / crf=18.5 / qcomp=0.72 / qpmin=0 / qpmax=69 / qpstep=4 / ip_ratio=1.40 / pb_ratio=1.30 / aq=1:0.85Encoded date : UTC 2016-01-12 05:52:18Tagged date : UTC 2016-01-12 05:52:20Color primaries : BT.709Transfer characteristics : BT.709Matrix coefficients : BT.709

AudioID : 2Format : AACFormat/Info : Advanced Audio CodecFormat profile : LCCodec ID : 40Duration : 24mn 14sBit rate mode : VariableBit rate : 192 KbpsMaximum bit rate : 232 KbpsChannel count : 2 channelsChannel positions : Front: L RSampling rate : 48.0 KHzCompression mode : LossyStream size : 33.3 MiB (10%)Language : JapaneseEncoded date : UTC 2016-01-11 18:03:57Tagged date : UTC 2016-01-12 05:52:20
01. I`m Flying! I`m Actually Flying!
02. Udon...?
[url]...5153024[/url] - 720p


Трекер:  [ 22-Янв-2016 03:00 ]

  

Скачать .torrent

Размер .torrent файла 15 KB


Размер: 727 MB
Хэш (hash) релиза: 07783bb3c2cb6ba91b8af4697d4759ff0e1f6a56
Подписка на обновления:

Торренты, похожие на Четыре ритма сквозь синеву Ao no Kanata no Four Rhythm скачать торрент

Форум Название Автор Размер S L Добавлен
Аниме | HD Rips ·· Четыре ритма сквозь синеву / Ao no Kanata no Four Rhythm / Aokana / Four Rhythm Across the Blue (Ойдзаки Фумитоси) [TV] [Без хардсаба] [01-10 из 12] [JAP+SUB] & [01-03 из 12] [RUS(ext)] [2016 г., фантастика, романтика, школа, драма, HDTVRip] [720 Galfimbul 40436475053.77 GB 0 0 1458349677

04:07

19-Мар-16

Аниме | HD Rips ·· Четыре ритма сквозь синеву / Aokana / Ao no Kanata no Four Rhythm / Four Rhythm Across the Blue [TV] [12 из 12] [Без хардсаба] [JAP, SUB] & [01-06 из 12] [2016 г., Драма, Фантастика, Романтика, Школа, BDRip] [720p] Galfimbul 52651640524.9 GB 0 0 1472668429

21:33

31-Авг-16

Аниме | HD Rips ·· Четыре ритма сквозь синеву / Aokana / Ao no Kanata no Four Rhythm / Four Rhythm Across the Blue [TV] [Без хардсаба] [6 из 12] [JAP+SUB] & [5 из 12] [RUS(ext)] [2016 г., драма, фантастика, романтика, школа, BDRip] [1080p] Galfimbul 83279720617.76 GB 0 0 1465720508

11:35

12-Июн-16

Аниме | HD Rips ·· Четыре ритма сквозь синеву / Aokana / Ao no Kanata no Four Rhythm / Four Rhythm Across the Blue [TV] [4 из 12] [Без хардсаба] [RUS(ext), JAP+SUB] [2016 г., драма, фантастика, романтика, школа, BDRip] [1080p] Galfimbul 53422554144.98 GB 0 0 1462784619

12:03

9-Май-16

Аниме | HD Rips ·· Четыре ритма сквозь синеву / Aokana / Ao no Kanata no Four Rhythm / Four Rhythm Across the Blue [TV] [4 из 12] [Без хардсаба] [RUS(ext), JAP+SUB] [2016 г., драма, фантастика, романтика, школа, BDRip] [1080p] Galfimbul 53277170804.96 GB 0 0 1462283926

16:58

3-Май-16

Аниме | HD Rips ·· Четыре ритма сквозь синеву / Aokana / Ao no Kanata no Four Rhythm / Four Rhythm Across the Blue [TV] [01-02 из 12] [Без хардсаба] [RUS(ext), JAP, SUB] [2015 г., Драма, Фантастика, Романтика, Школа, BDRip] [720p] Galfimbul 873857769833 MB 0 0 1458823788

15:49

24-Мар-16

Аниме | HD Rips ·· Четыре ритма сквозь синеву / Four Rhythm Across the Blue / Ao no Kanata no Four Rhythm / Aokana (Ойдзаки Фумитоси) [TV] [01 из 12] [Без хардсаба] [RUS(ext), JAP+SUB] [2016 г., фантастика, романтика, школа, драма, HDTVRip] [720p] Galfimbul 395266336377 MB 0 0 1453150651

23:57

18-Янв-16

Аниме | HD Rips ·· Четыре ритма сквозь синеву / Four Rhythm Across the Blue / Ao no Kanata no Four Rhythm / Aokana (Ойдзаки Фумитоси) [TV] [01 из 12] [Без хардсаба] [JAP+SUB] [2016 г., фантастика, романтика, школа, драма, HDTVRip] [720p] Galfimbul 360129339343 MB 0 0 1452623742

21:35

12-Янв-16

Еще никто не оставлял запись к записи скачать торрент Четыре ритма сквозь синеву Ao no Kanata no Four Rhythm . Будь первым!

!Обратная связь