Скачать через торрент Радужные деньки Rainbow Days бесплатно Аниме Все серии на русском torrent

Если у вас наблюдаются проблемы со скриншотами, переходом по ссылками, скачиванием торрентов - проблемы в блокировщике рекламы AdBlock. #хорошегоДня!


Статистика раздачи
Размер:  206 MB   |    Зарегистрирован:  1 год 8 месяцев   |    .torrent скачан:  19 раз   |   
Раздают:  1  
   
Загрузка...
 
Автор Сообщение

Galfimbul

avatar Galfimbul


Радужные деньки / Rainbow Days / Nijiiro Days / Niji-iro Days

Страна: Япония
Год выпуска: 2016 г.
Жанр: комедия, романтика, сёдзё
Тип: TV
Продолжительность: 12 эп. по 13 мин.
Режиссер: Амино Тэцуро
Студия: Production Reed

Описание: Первая любовь — это то, что происходит с каждым человеком. В период юности данное чувство воспринимается особенно остро, поэтому такое воспоминание сложно забыть. Наши главные герои - Хашиба Натсуки, Матсунага Томоя, Катакура Кеичи, Наое Тсуеши. Эти парни неразлучны в любой ситуации, а их оптимизму может позавидовать даже комик. Главный герой — Хашиба, недавно расстался с девушкой, а пока сидел и горевал у ближайшего караоке-бара успел найти новую. Барышня успокоила его и подарила свой платок на память, а Хашиба вручил ей свой шарф.

Удивительная встреча стала для парня новой точкой отсчета в жизни. Он задался целью найти незнакомку и предложить свою дружбу. Однако искать долго не пришлось: вскоре Хашиба видит объект своей мечты в школьной раздевалке. Оказывается, что девушка работает в караоке-баре, иногда засыпает в кабинете учителя и даже имеет какие-то дела с верзилами. Собранная инфорация настолько хаотична для парня, что он решает разобраться во всем и попробовать пригласить свою любовь на свидание.

Качество: HDTVRip
Тип релиза: Без хардсаба
Формат видео: MP4
Наличие линковки: Нет
Релиз/Автор рипа: Ohys-Raws
Видео: x264 (8 bit), 1280x720, ~1800 Kbps, 23.976 fps
Аудио JAP: AAC, 48000 Hz, ~200 Kbps, 2 ch
Аудио RUS: AAC, 48000 Hz, ~192 Kbps, 2 ch; (внешними файлами); Озвучка: двухголосая (муж./жен.) от Absurd & Eladiel (Onibaku Group)
Субтитры RUS: ASS, внешние; Переводчик: Kasandra; Редактор/Тайм-код: sys3x
GeneralComplete name : C:\Documents and Settings\Администратор\Мои документы\Downloads\Nijiiro Days\[Ohys-Raws] Niji-iro Days - 01 (MX 1280x720 x264 AAC).mp4Format : MPEG-4Format profile : Base MediaCodec ID : isomFile size : 188 MiBDuration : 13mn 0sOverall bit rate mode : VariableOverall bit rate : 2 026 KbpsEncoded date : UTC 2016-01-10 13:26:09Tagged date : UTC 2016-01-10 13:26:09

VideoID : 1Format : AVCFormat/Info : Advanced Video CodecFormat profile : Main@L4.1Format settings, CABAC : YesFormat settings, ReFrames : 4 framesCodec ID : avc1Codec ID/Info : Advanced Video CodingDuration : 12mn 59sBit rate : 1 820 KbpsMaximum bit rate : 11.8 MbpsWidth : 1 280 pixelsHeight : 720 pixelsDisplay aspect ratio : 16:9Frame rate mode : ConstantFrame rate : 23.976 fpsColor space : YUVChroma subsampling : 4:2:0Bit depth : 8 bitsScan type : ProgressiveBits/(Pixel*Frame) : 0.082Stream size : 169 MiB (90%)Writing library : x264 core 148 r2638 7599210Encoding settings : cabac=1 / ref=3 / deblock=1:0:0 / analyse=0x1:0x111 / me=hex / subme=7 / psy=1 / psy_rd=1.00:0.00 / mixed_ref=1 / me_range=16 / chroma_me=1 / trellis=1 / 8x8dct=0 / cqm=0 / deadzone=21,11 / fast_pskip=1 / chroma_qp_offset=-2 / threads=12 / lookahead_threads=2 / sliced_threads=0 / nr=0 / decimate=1 / interlaced=0 / bluray_compat=0 / constrained_intra=0 / bframes=3 / b_pyramid=2 / b_adapt=1 / b_bias=0 / direct=1 / weightb=1 / open_gop=0 / weightp=2 / keyint=240 / keyint_min=1 / scenecut=40 / intra_refresh=0 / rc_lookahead=40 / rc=crf / mbtree=1 / crf=20.0 / qcomp=0.60 / qpmin=0 / qpmax=69 / qpstep=4 / ip_ratio=1.40 / aq=1:1.50Encoded date : UTC 2016-01-10 13:26:09Tagged date : UTC 2016-01-10 13:26:10Color primaries : BT.709Transfer characteristics : BT.709Matrix coefficients : BT.709

AudioID : 2Format : AACFormat/Info : Advanced Audio CodecFormat profile : LCCodec ID : 40Duration : 13mn 0sBit rate mode : VariableBit rate : 202 KbpsMaximum bit rate : 245 KbpsChannel count : 2 channelsChannel positions : Front: L RSampling rate : 48.0 KHzCompression mode : LossyStream size : 18.8 MiB (10%)Language : JapaneseEncoded date : UTC 2016-01-10 13:20:37Tagged date : UTC 2016-01-10 13:26:10
01.


Трекер:  [ 17-Янв-2016 20:30 ]

  

Скачать .torrent

Размер .torrent файла 17 KB


Размер: 206 MB
Хэш (hash) релиза: 3fc5de04ff757d3d19cc53f6bacf213423283f94
Подписка на обновления:

Торренты, похожие на Радужные деньки Rainbow Days скачать торрент

Форум Название Автор Размер S L Добавлен
Аниме | HD Rips ·· Радужные деньки / Rainbow Days / Nijiiro Days / Niji-iro Days (Амино Тэцуро) [TV] [01 из 12] [Без хардсаба] [JAP+SUB] [2016 г., комедия, романтика, сёдзё, HDTVRip] [720p] Galfimbul 197574416188 MB 0 0 1452482862

06:27

11-Янв-16

Еще никто не оставлял запись к записи скачать торрент Радужные деньки Rainbow Days . Будь первым!

!Обратная связь