Скачать через торрент Простолюдин в школе благородных девиц Ore ga Ojou-sama Gakkou ni "Shomin Sample" Toshite Gets-sareta Ken бесплатно Аниме Все серии на русском torrent

Если у вас наблюдаются проблемы со скриншотами, переходом по ссылками, скачиванием торрентов - проблемы в блокировщике рекламы AdBlock. #хорошегоДня!


Статистика раздачи
Размер:  958 MB   |    Зарегистрирован:  1 год 8 месяцев   |    .torrent скачан:  44 раза   |   
Раздают:  1  
   
Загрузка...
 
Автор Сообщение

Galfimbul

avatar Galfimbul


Простолюдин в школе благородных девиц
Ore ga Ojousama Gakkou ni "Shomin Sample" Toshite Gets♥
Sareta Ken

Год выпуска: 2015
Страна: Япония
Жанр: комедия, школа, этти, романтика
Продолжительность: ТВ, 12 эп. по 25 мин.
Выпуск: c 07.10.2015 по 23.12.2015
Перевод:
<ol class="post-ul">
русские субтитры от (полные/вспомогательные)
переводчик: Gerale , редакторы: Komugi-chan(1-3), Ryuji (4-12)
</ol>
Режиссер: Дзимбо Масато
Студия: SILVER LINK.
Описание:
Женская школа Сэйкайн воспитывает дочерей японской элиты, да вот беда – жизнь и обучение там застряли в галантной эпохе Тайсё. Утонченные выпускницы не могут адаптироваться в реальности, полной непонятной техники и грубых невежд. Решение нашлось быстро – старшеклассника Кимито Кагурадзаку взяли под белы руки, привезли и объяснили, что отныне он – образец простолюдина, живая модель, на которой будут тренироваться местные «принцессы». За девичью честь похитители не боятся – ведь, по их данным, Кимито возбуждают только голые торсы накачанных мужиков!

Бедняга не стал объяснять новым хозяевам, что его жестоко оболгала подруга детства – жить-то хочется! Что ж, семье заплачено, вещи доставлены – пора расслабиться и получать удовольствие, тем более что девушки из высшего общества вовсе не агрессивны, а милы и наивны, как дети. И проблемы у них детские – Айке хочется всеобщего внимания, Рэйко пытается быть безупречной, Карэн желает фамильным мечом защититься от пугающего мира, а гениальная Хакуа в жизни беспомощна, как пятилетний малыш. Что простой и честный парень может натворить в подобном цветнике – вы уже догадались!© Hollow, World Art
Информационные ссылки: AniDB || World Art
Качество: BDRip
Энкод: Beatrice-Raws | X-Kira
Тип видео: без хардсаба, без линковки
Формат: mkv
Видео: x264 (Hi10p), 1280x720, ~2500 Kbps, 23.976 fps
Аудио JAP: Vorbis, 48000Hz, 2ch, ~256 Kbps
01. Welcome, Commoner
02. Reiko Is Who We Wish to Be Like
[url]...5095536[/url]
- BDRip
[url]...5147363[/url]
- 720p

Format                      : Matroska
Format version              : Version 4 / Version 2
File size                   : 485 MiB
Duration                    : 23mn 42s
Overall bit rate mode       : Variable
Overall bit rate            : 2 859 Kbps
Encoded date                : UTC 2016-01-12 06:29:36
Writing application         : mkvmerge v8.0.0 ('Til The Day That I Die') 64bit
Writing library             : libebml v1.3.1 + libmatroska v1.4.2
DURATION                    : 00:23:42.088000000
NUMBER_OF_FRAMES            : 149512
NUMBER_OF_BYTES             : 41609850
_STATISTICS_WRITING_APP     : mkvmerge v8.0.0 ('Til The Day That I Die') 64bit
_STATISTICS_WRITING_DATE_UT : 2016-01-12 06:29:36
_STATISTICS_TAGS            : BPS DURATION NUMBER_OF_FRAMES NUMBER_OF_BYTES

Video
ID                          : 1
Format                      : AVC
Format/Info                 : Advanced Video Codec
Format profile              : High 10@L4.1
Format settings, CABAC      : Yes
Format settings, ReFrames   : 9 frames
Codec ID                    : V_MPEG4/ISO/AVC
Duration                    : 23mn 42s
Bit rate                    : 2 546 Kbps
Width                       : 1 280 pixels
Height                      : 720 pixels
Display aspect ratio        : 16:9
Frame rate mode             : Constant
Frame rate                  : 23.976 fps
Color space                 : YUV
Chroma subsampling          : 4:2:0
Bit depth                   : 10 bits
Scan type                   : Progressive
Bits/(Pixel*Frame)          : 0.115
Stream size                 : 432 MiB (89%)
Title                       : BDRip by X-Kira
Writing library             : x264 core 148 r2579 73ae2d1
Encoding settings           : cabac=1 / ref=9 / deblock=1:-2:-2 / analyse=0x3:0x113 / me=umh / subme=9 / psy=1 / psy_rd=0.90:0.00 / mixed_ref=1 / me_range=32 / chroma_me=1 / trellis=2 / 8x8dct=1 / cqm=0 / deadzone=21,11 / fast_pskip=1 / chroma_qp_offset=-2 / threads=6 / lookahead_threads=1 / sliced_threads=0 / nr=0 / decimate=1 / interlaced=0 / bluray_compat=0 / constrained_intra=0 / bframes=11 / b_pyramid=2 / b_adapt=2 / b_bias=0 / direct=1 / weightb=1 / open_gop=0 / weightp=2 / keyint=240 / keyint_min=23 / scenecut=40 / intra_refresh=0 / rc=crf / mbtree=0 / crf=14.8 / qcomp=0.70 / qpmin=0 / qpmax=81 / qpstep=4 / ip_ratio=1.40 / pb_ratio=1.30 / aq=1:1.00
Language                    : Japanese
Default                     : Yes
Forced                      : No
Color range                 : Limited
Color primaries             : BT.709
Transfer characteristics    : BT.709
Matrix coefficients         : BT.709

Audio
ID                          : 2
Format                      : Vorbis
Format settings, Floor      : 1
Codec ID                    : A_VORBIS
Duration                    : 23mn 42s
Bit rate mode               : Variable
Bit rate                    : 256 Kbps
Channel(s)                  : 2 channels
Sampling rate               : 48.0 KHz
Compression mode            : Lossy
Stream size                 : 43.4 MiB (9%)
Title                       : LPCM->Vorbis
Writing library             : aoTuV 20110424 (UTC 2011-04-24)
Language                    : Japanese
Default                     : Yes
Forced                      : No

Menu
00:00:00.000                : en:Prologue
00:00:47.046                : en:Opening
00:02:17.011                : en:Part A
00:12:02.012                : en:Part B
00:20:40.072                : en:Ending
00:22:10.037                : en:Part C
00:23:25.028                : en:Preview

x264 [info]: frame I:279 Avg QP:22.01 size:167285x264 [info]: frame P:7748 Avg QP:23.27 size: 32756x264 [info]: frame B:26069 Avg QP:24.82 size: 5858encoded 34096 frames, 5.45 fps, 2549.40 kb/s


<ol class="post-ul">
Данный релиз предназначен для просмотра на ПК. Воспроизведение на иных проигрывателях не гарантируется. Для просмотра рекомендуется Media Player Classic с установленным пакетом кодеков K-Lite.
</ol>
<ol class="post-ul">
Данный релиз содержит 10-битное видео (Hi10p). Для корректного воспроизведения обязательно используйте кодеки, поддерживающие 10-битное видео.
Обсудить частные случаи проблем с воспроизведением и получить дополнительную информацию можно [url=...3682344]здесь[/url].
</ol>
<ol class="post-ul">
Данный релиз предназначен для просмотра с внешними субтитрами и внешними звуковыми дорожками.
Для просмотра с внешней звуковой дорожкой нужно:
перекинуть файлы .mka из папки "RUS Sound [<автор(ы) озвучки>]" в одну папку с видео и переключить звуковую дорожку в плеере при просмотре. Как это сделать в разных плеерах подробно описано [url=...2403326]здесь[/url].
Для просмотра с субтитрами нужно:
перекинуть файлы .ass из папки "RUS Subtitles [<автор(ы) перевода>]" в одну папку с видео - плеер подгрузит их автоматически при открытии видео.
</ol>


Трекер:  [ 12-Янв-2016 10:30 ]

  

Скачать .torrent

Размер .torrent файла 2 KB


Размер: 958 MB
Хэш (hash) релиза: 38e4c4c9bc77050985f8d20f7af03f9899dbb937
Подписка на обновления:

Торренты, похожие на Простолюдин в школе благородных девиц Ore ga Ojou-sama Gakkou ni "Shomin Sample" Toshite Gets-sareta Ken скачать торрент

Форум Название Автор Размер S L Добавлен
Аниме | HD Rips ·· Я стал образцом простолюдина в школе благородных девиц / Ore ga Ojou-sama Gakkou ni "Shomin Sample" Toshite Gets-sareta Ken (Дзимбо Масато) [TV+Special] [12+6 из 12+6] [Без хардсаба] [JAP+SUB] [2015 г., комедия, этти, BDRip] [1080p] Galfimbul 1788435880916.66 GB 0 0 1469789988

13:59

29-Июл-16

Аниме | HD Rips ·· Я стал образцом простолюдина в школе благородных девиц / Ore ga Ojou-sama Gakkou ni "Shomin Sample" Toshite Gets-sareta Ken (Дзимбо Масато) [TV+Special] [12+1-4,6 из 12+6] [Без хардсаба] [JAP+SUB] [2015 г., комедия, этти, BDRip] [1080p] Galfimbul 1767432003516.46 GB 0 0 1468074773

17:32

9-Июл-16

Аниме | HD Rips ·· Я стал образцом простолюдина в школе благородных девиц / Ore ga Ojou-sama Gakkou ni "Shomin Sample" Toshite Gets-sareta Ken (Дзимбо Масато) [TV+Special] [10+3 из 12+6] [Без хардсаба] [JAP+SUB] [2015 г., комедия, этти, BDRip] [1080p] Galfimbul 1332744396212.41 GB 0 0 1464555950

00:05

30-Май-16

Аниме | HD Rips ·· Я стал образцом простолюдина в школе благородных девиц / Ore ga Ojou-sama Gakkou ni "Shomin Sample" Toshite Gets-sareta Ken [TV+Special] [01-02+1 из 12+6] [Без хардсаба] [JAP+SUB] [2015 г., комедия, этти, романтика, BDRip] [1080p] Galfimbul 27607419342.57 GB 0 0 1454045022

08:23

29-Янв-16

Аниме | HD Rips ·· Я стал образцом простолюдина в школе благородных девиц / Ore ga Ojou-sama Gakkou ni "Shomin Sample" Toshite Gets-sareta Ken (Дзимбо Масато) [TV] [01-02 из 12] [Без хардсаба] [JAP+SUB] [2015 г., комедия, этти, романтика, BDRip] [1080p] Galfimbul 26118248012.43 GB 0 0 1452323233

10:07

9-Янв-16

Аниме | HD Rips ·· Я стал образцом простолюдина в школе благородных девиц / Ore ga Ojou-sama Gakkou ni "Shomin Sample" Toshite Gets-sareta Ken (Дзимбо Масато) [TV] [01 из 12] [Без хардсаба] [JAP+SUB] [2015 г., комедия, этти, романтика, HDTVRip] [720p] Galfimbul 368908789352 MB 0 0 1444859106

00:45

15-Окт-15

Еще никто не оставлял запись к записи скачать торрент Простолюдин в школе благородных девиц Ore ga Ojou-sama Gakkou ni "Shomin Sample" Toshite Gets-sareta Ken . Будь первым!

!Обратная связь