Скачать через торрент Измерение «W» Dimension W бесплатно Аниме Все серии на русском torrent

Если у вас наблюдаются проблемы со скриншотами, переходом по ссылками, скачиванием торрентов - проблемы в блокировщике рекламы AdBlock. #хорошегоДня!


Статистика раздачи
Размер:  385 MB   |    Зарегистрирован:  1 год 8 месяцев   |    .torrent скачан:  12 раз   |   
Раздают:  1  
   
Загрузка...
 
Автор Сообщение

Galfimbul

avatar Galfimbul



Страна: Япония
Год выпуска: 2016 г.
Жанр: фантастика, сейнен
Продолжительность: 12 эп. по 25 мин
Режиссер: Камэй Канта
Студия: Studio 3Hz & Orange
Перевод:
<ol class="post-ul">
русские субтитры: [Anistar] (внешним файлом)
</ol>
Описание: В будущем мечта Николы Теслы о беспроводной передаче электричества осуществилась. Провода и батареи остались в прошлом, а люди начали получать электричество из так называемых «катушек». Однако со временем некоторые люди стали модифицировать свои «катушки» и использовать их как оружие.
Кёма Мабучи — «охотник», который в обмен на эти незаконные «катушки» получает деньги и топливо для своего раритетного автомобиля, работающего на бензине.
Однажды, как и всегда, он берётся за работу: ему поручают отобрать партию нелегальных «катушек». Перебив всех бандитов, он нехотя спасает девушку, которая тут же отправляет его в нокаут с одной пощечины.
<div style="margin-left: 2em" class="post-ul">© NedStar</div>
Качество: HDTVRip
Тип релиза: Без хардсаба
Формат видео: mp4
Релиз/Автор рипа: [Ohys-Raws]
Видео: H264; 1988 Kbps; 1280x720; 23.976 fps; 8 bit
Аудио: JAP, AAC; 205 kbps; 48000 Hz; 2ch
GeneralComplete name : F:\Torrent\avdump\[Ohys-Raws] Dimension W - 01 (MX 1280x720 x264 AAC).mp4Format : MPEG-4Format profile : Base MediaCodec ID : isomFile size : 385 MiBDuration : 24mn 30sOverall bit rate mode : VariableOverall bit rate : 2 197 KbpsEncoded date : UTC 2016-01-10 14:20:19Tagged date : UTC 2016-01-10 14:20:19

VideoID : 1Format : AVCFormat/Info : Advanced Video CodecFormat profile : Main@L4.1Format settings, CABAC : YesFormat settings, ReFrames : 4 framesCodec ID : avc1Codec ID/Info : Advanced Video CodingDuration : 24mn 29sBit rate : 1 988 KbpsMaximum bit rate : 12.3 MbpsWidth : 1 280 pixelsHeight : 720 pixelsDisplay aspect ratio : 16:9Frame rate mode : ConstantFrame rate : 23.976 fpsColor space : YUVChroma subsampling : 4:2:0Bit depth : 8 bitsScan type : ProgressiveBits/(Pixel*Frame) : 0.090Stream size : 348 MiB (90%)Writing library : x264 core 148 r2638 7599210Encoding settings : cabac=1 / ref=3 / deblock=1:0:0 / analyse=0x1:0x111 / me=hex / subme=7 / psy=1 / psy_rd=1.00:0.00 / mixed_ref=1 / me_range=16 / chroma_me=1 / trellis=1 / 8x8dct=0 / cqm=0 / deadzone=21,11 / fast_pskip=1 / chroma_qp_offset=-2 / threads=12 / lookahead_threads=2 / sliced_threads=0 / nr=0 / decimate=1 / interlaced=0 / bluray_compat=0 / constrained_intra=0 / bframes=3 / b_pyramid=2 / b_adapt=1 / b_bias=0 / direct=1 / weightb=1 / open_gop=0 / weightp=2 / keyint=240 / keyint_min=1 / scenecut=40 / intra_refresh=0 / rc_lookahead=40 / rc=crf / mbtree=1 / crf=20.0 / qcomp=0.60 / qpmin=0 / qpmax=69 / qpstep=4 / ip_ratio=1.40 / aq=1:1.50Encoded date : UTC 2016-01-10 14:20:19Tagged date : UTC 2016-01-10 14:20:21Color range : LimitedColor primaries : BT.709Transfer characteristics : BT.709Matrix coefficients : BT.709

AudioID : 2Format : AACFormat/Info : Advanced Audio CodecFormat profile : LCCodec ID : 40Duration : 24mn 30sBit rate mode : VariableBit rate : 205 KbpsMaximum bit rate : 263 KbpsChannel(s) : 2 channelsChannel positions : Front: L RSampling rate : 48.0 KHzCompression mode : LossyStream size : 36.0 MiB (9%)Language : JapaneseEncoded date : UTC 2016-01-10 14:05:59Tagged date : UTC 2016-01-10 14:20:21
01 - Коллектор


Трекер:  [ 10-Янв-2016 19:30 ]

  

Скачать .torrent

Размер .torrent файла 15 KB


Размер: 385 MB
Хэш (hash) релиза: 69122eca80d67ec2f3b37b7dc4d39127d7f35480
Подписка на обновления:

Торренты, похожие на Измерение «W» Dimension W скачать торрент

Форум Название Автор Размер S L Добавлен
Аниме | HD Rips ·· Измерение «W» / Dimension W (Камэй Канта) [TV+Special] [без хардсаба] [12+1 из 12+6] [JAP+SUB] & [12+0 из 12+6] [RUS(ext)] [2016, фантастика, сейнен, BDRemux] [1080p] Galfimbul 5813476188254.14 GB 0 0 1502568136

23:02

12-Авг-17

Аниме | HD Rips ·· Измерение «W» / Dimension W (Камэй Канта) [TV] [6 из 12] [Без хардсаба] [RUS(ext), JAP+SUB] [2016 г., приключения, фантастика, BDRip] [1080p] Galfimbul 1240688520411.55 GB 0 0 1467918251

22:04

7-Июл-16

Аниме | Rips ·· Измерение «W» / Dimension W [TV] [12 из 12] [без хардсаба] [RUS(int), JAP+SUB] [2016 г., фантастика, приключения, сейнен, HDTVRip] [720p] Galfimbul 51122658344.76 GB 0 0 1466858848

15:47

25-Июн-16

Аниме | Rips ·· Измерение W / Dimension W [TV] [12 из 12] [Без хардсаба] [RUS(int), JAP+SUB] [2016 г., приключения, фантастика, драма, сэйнэн, HDTVRip] [HWP] Galfimbul 35354014883.29 GB 0 0 1464584219

07:56

30-Май-16

Аниме | Rips ·· Измерение W / Dimension W [TV] [01-11 из 12] [Без хардсаба] [RUS(int), JAP+SUB] [2016 г., приключения, фантастика, драма, сэйнэн, HDTVRip] [HWP] Galfimbul 32122263502.99 GB 0 0 1464110713

20:25

24-Май-16

Аниме | HD Rips ·· Измерение «W» / Dimension W (Камэй Канта) [TV] [4 из 12] [без хардсаба] [RUS(ext), JAP+SUB] [2016 г., фантастика, сейнен, BDRip] [1080p] Galfimbul 91380363308.51 GB 0 0 1462458710

17:31

5-Май-16

Аниме | Rips ·· Измерение «W» / Dimension W [TV] [12 из 12] [без хардсаба] [RUS(int), JAP+SUB] [2016 г., фантастика, приключения, сейнен, HDTVRip] [720p] Galfimbul 51122628144.76 GB 0 0 1459344796

16:33

30-Мар-16

Аниме | Rips ·· Измерение W / Dimension W [TV] [01-03 из >12] [Без хардсаба] [RUS(int), JAP+SUB] [2016 г., приключения, фантастика, драма, сэйнэн, HDTVRip] [HWP] Galfimbul 944113436900 MB 0 0 1454529384

22:56

3-Фев-16

Аниме | Rips ·· Измерение W / Dimension W [TV] [2 из 12] [JAP+SUB] & [1 из 12] [RUS(ext)] [Без хардсаба] [2016 г., сейнен, фантастика, HDTVRip 720p] Galfimbul 12261573871.14 GB 0 0 1453102005

10:26

18-Янв-16

Аниме | HD Rips ·· Измерение «W» / Dimension W (Камэй Канта) [TV] [Без хардсаба] [1 из 12] [JAP+SUB] & [1 из 12] [RUS(ext)] [2016 г., фантастика, сейнен HDTVRip] [720] Galfimbul 489832489467 MB 0 0 1452554633

02:23

12-Янв-16

Еще никто не оставлял запись к записи скачать торрент Измерение «W» Dimension W . Будь первым!

!Обратная связь