Скачать через торрент Бубуки Буранки Bubuki Burank бесплатно Аниме Все серии на русском torrent

Если у вас наблюдаются проблемы со скриншотами, переходом по ссылками, скачиванием торрентов - проблемы в блокировщике рекламы AdBlock. #хорошегоДня!


Статистика раздачи
Размер:  415 MB   |    Зарегистрирован:  1 год 8 месяцев   |    .torrent скачан:  12 раз   |   
Раздают:  1  
   
Загрузка...
 
Автор Сообщение

Galfimbul

avatar Galfimbul


Бубуки Буранки / Bubuki Burank
Страна: Япония
Год выпуска: 2016 г.
Тип: TV
Жанр: Экшн, приключения, фантастика
Продолжительность: 12 эп. по 25 мин
Русские субтитры: YakuSub Studio
Перевод: Nika_Elrik
Редактор: Aero
Оформление: Helge
Русские субтитры: YukioSub Project
Перевод: Yukio_sempai
Режиссер: Комацуда Дайдзэн

Студия:

Описание: Казуки Азума не был на родине, в Японии, целых десять лет, и не особо представлял себе, что ждет его дома. Одно можно сказать точно: он совершенно не ожидал, что подвергнется нападению со стороны десятки вооруженных до зубов человек, которые возьмут его в плен, однако именно это с ним и случилось. Впрочем, в плену Казуки пробыл недолго: на помощь ему подоспела подруга детства, и не одна, а со странным разумным оружием — так называемым «бубуки2.

Сюрпризы на этом не закончились: не успел Казуки узнать о существовании бубуки и как следует переварить эту информацию, как выяснилось, что он и сам способен использовать такое оружие. А еще — что цель людей, подобных ему, состоит в возрождении великана по имени Омаи, так называемого Буранки, спящего под землей. Перед Казуки, получившим новое знание и жизненное предназначение, открылась новая тропа, по которой он и пошел в компании таких же, как он сам, владеющих бубуки бойцов. А вот получится ли у них проделать свой путь до конца — уже совсем другой вопрос.

Качество: HDTVRip | Равка: Leopard-Raws Формат: mp4 | Тип Видео: без хардсаба
Видео: х264, 8 bits, 1280x720, 2225 kbps, 23.976 fps, (16:9)
JP - AAC, 192 kbps, 48.0 KHz, 2 ch Язык Японский
01. The Witch`s Son
Общее
Полное имя : D:\[Leopard-Raws]\[Leopard-Raws] Bubuki Buranki\[Leopard-Raws] Bubuki Buranki - 01 RAW (TVA 1280x720 x264 AAC).mp4
Формат : MPEG-4
Профиль формата : Base Media
Идентификатор кодека : isom
Размер файла : 415 Мбайт
Продолжительность : 23 м.
Режим общего битрейта : Переменный
Общий поток : 2420 Кбит/сек
Дата кодирования : UTC 2016-01-10 05:45:26
Дата пометки : UTC 2016-01-10 05:45:26

Видео
Идентификатор : 1
Формат : AVC
Формат/Информация : Advanced Video Codec
Профиль формата : High@L4.1
Параметр CABAC формата : Да
Параметр ReFrames формата : 4 кадра
Идентификатор кодека : avc1
Идентификатор кодека/Информация : Advanced Video Coding
Продолжительность : 23 м.
Битрейт : 2225 Кбит/сек
Максимальный битрейт : 14,6 Мбит/сек
Ширина : 1280 пикселей
Высота : 720 пикселей
Соотношение сторон : 16:9
Режим частоты кадров : Постоянный
Частота кадров : 23,976 кадра/сек
Цветовое пространство : YUV
Субдискретизация насыщенности : 4:2:0
Битовая глубина : 8 бит
Тип развёртки : Прогрессивная
Бит/(Пиксели*Кадры) : 0.101
Размер потока : 382 Мбайт (92%)
Заголовок : 264:fps=23.976@GPAC0.5.1-DEV-rev4929
Библиотека кодирования : x264 core 129 r2245+729M 1a52e03
Настройки программы : cabac=1 / ref=4 / deblock=1:1:-1 / analyse=0x3:0x113 / me=umh / subme=9 / psy=1 / fade_compensate=0.00 / psy_rd=1.00:0.00 / mixed_ref=1 / me_range=24 / chroma_me=1 / trellis=2 / 8x8dct=1 / cqm=0 / deadzone=21,11 / fast_pskip=1 / chroma_qp_offset=-2 / threads=8 / lookahead_threads=1 / sliced_threads=0 / nr=0 / decimate=1 / interlaced=0 / bluray_compat=0 / constrained_intra=0 / fgo=0 / bframes=9 / b_pyramid=2 / b_adapt=2 / b_bias=0 / direct=1 / weightb=1 / open_gop=0 / weightp=2 / keyint=240 / keyint_min=24 / scenecut=40 / intra_refresh=0 / rc=crf / mbtree=0 / crf=18.5 / qcomp=0.72 / qpmin=0 / qpmax=69 / qpstep=4 / ip_ratio=1.40 / pb_ratio=1.30 / aq=1:0.85
Дата кодирования : UTC 2016-01-10 05:45:26
Дата пометки : UTC 2016-01-10 05:45:29
Основные цвета : BT.709
Характеристики трансфера : BT.709
Коэффициенты матрицы : BT.709

Аудио
Идентификатор : 2
Формат : AAC
Формат/Информация : Advanced Audio Codec
Профиль формата : LC
Идентификатор кодека : 40
Продолжительность : 23 м.
Вид битрейта : Переменный
Битрейт : 192 Кбит/сек
Максимальный битрейт : 233 Кбит/сек
Каналы : 2 канала
Расположение каналов : Front: L R
Частота : 48,0 КГц
Метод сжатия : С потерями
Размер потока : 32,9 Мбайт (8%)
Язык : Japanese
Дата кодирования : UTC 2016-01-09 18:36:59
Дата пометки : UTC 2016-01-10 05:45:29


Трекер:  [ 10-Янв-2016 13:00 ]

  

Скачать .torrent

Размер .torrent файла 17 KB


Размер: 415 MB
Хэш (hash) релиза: 7551d4cc21a47df56a118ec655a24c9a3be544d0
Подписка на обновления:

Еще никто не оставлял запись к записи скачать торрент Бубуки Буранки Bubuki Burank . Будь первым!

!Обратная связь