Скачать порно через торрент [MEN.COM] A Royal Fuckfest Part 3 - Connor Maguire, Paul Walker, Theo Ford UnionPeer.org бесплатно онлайн HD качество

Скачать новое порно 2015, 2014 новинки через торрент UnionPeer.org

Порно торрент бесплатно ЮнионПир.орг

Если у вас наблюдаются проблемы со скриншотами, переходом по ссылками, скачиванием торрентов - проблемы в блокировщике рекламы AdBlock. #хорошегоДня!


Статистика раздачи
Размер:  845 MB   |    Зарегистрирован:  1 год 7 месяцев   |    .torrent скачан:  7 раз   |   
Раздают:  1  
   
Загрузка...
 
Автор Сообщение

Galfimbul

avatar Galfimbul




A Royal Fuckfest Part 3

Год производства: 2015 г.
Студия: Men.com
Жанр: oral, anal, cumshot, hunk
Продолжительность: 00:28:47

Качество видео: SiteRip
Формат видео: MP4
Видео: MPEG4 Video (H264) 1280x720 29.97fps 3797kbps [V: h264 high L3.1, yuv420p, 1280x720, 3797 kb/s]
Аудио: AAC 48000Hz stereo 127kbps [A: SoundHandler (aac lc, 48000 Hz, stereo, 127 kb/s)]

Описание: Наши красавчики голубых кровей в очередной раз занялись королевским сексом и решили заснять все это на видео. Ай яй яй, лучше за своими файлами следить надо XD

На самом деле все началось с этого видео. Увидел "рекламу" на одном тематическом зарубежном сайте и решил скачать с любимого трекера, но не нашел. А когда нашел на зарубежном трекере, решил поделиться с вами. Фотосет третьей части еще не нашел, так что бонус немного запаздает. Релиз конца декабря. Приятного просмотра.
General
Complete name :[MEN] Men Of Uk - A Royal Fuckfest, Part 3 - Connor Maguire & Paul Walker & Theo Ford (720p).mp4
Format : MPEG-4
Format profile : Base Media
Codec ID : isom
File size : 845 MiB
Duration : 28mn 47s
Overall bit rate : 4 104 Kbps
Writing application : Lavf55.3.100

Video
ID : 1
Format : AVC
Format/Info : Advanced Video Codec
Format profile : High@L3.1
Format settings, CABAC : Yes
Format settings, ReFrames : 5 frames
Codec ID : avc1
Codec ID/Info : Advanced Video Coding
Duration : 28mn 47s
Bit rate : 3 800 Kbps
Width : 1 280 pixels
Height : 720 pixels
Display aspect ratio : 16:9
Frame rate mode : Constant
Frame rate : 29.970 fps
Color space : YUV
Chroma subsampling : 4:2:0
Bit depth : 8 bits
Scan type : Progressive
Bits/(Pixel*Frame) : 0.138
Stream size : 782 MiB (93%)
Writing library : x264 core 132 r2309 3b1f1f7

Audio
ID : 2
Format : AAC
Format/Info : Advanced Audio Codec
Format profile : LC
Codec ID : 40
Duration : 28mn 47s
Duration_LastFrame : 27ms
Bit rate mode : Constant
Bit rate : 128 Kbps
Channel(s) : 2 channels
Channel positions : Front: L R
Sampling rate : 48.0 KHz
Compression mode : Lossy
Stream size : 26.4 MiB (3%)
[url=...2116905]A Royal Fuckfest Part 1[/url] | [url=...2116913]A Royal Fuckfest Part 2[/url]

Трекер:  [ 09-Янв-2016 08:00 ]

  

Скачать .torrent

Размер .torrent файла 17 KB


Размер: 845 MB
Хэш (hash) релиза: 9326a661461ea679359678c0df4dc84dce286135

Еще никто не оставлял запись к записи скачать торрент [MEN.COM] A Royal Fuckfest Part 3 - Connor Maguire, Paul Walker, Theo Ford . Будь первым!

!Обратная связь