Скачать порно через торрент [MEN.COM] A Royal Fuckfest Part 1 - Connor Maguire, Theo Reid UnionPeer.org бесплатно онлайн HD качество

Скачать новое порно 2015, 2014 новинки через торрент UnionPeer.org

Порно торрент бесплатно ЮнионПир.орг

Если у вас наблюдаются проблемы со скриншотами, переходом по ссылками, скачиванием торрентов - проблемы в блокировщике рекламы AdBlock. #хорошегоДня!


Статистика раздачи
Размер:  735 MB   |    Зарегистрирован:  1 год 7 месяцев   |    .torrent скачан:  7 раз   |   
Раздают:  1  
   
Загрузка...
 
Автор Сообщение

Galfimbul

avatar Galfimbul




A Royal Fuckfest Part 1

Год производства: 2015 г.
Студия: Men.com
Жанр: oral, anal, cumshot, hunk
Продолжительность: 00:25:03

Качество видео: SiteRip
Формат видео: MP4
Видео: MPEG4 Video (H264) 1280x720 23.976fps 3800kbps [V: English [eng] (h264 high L3.1, yuv420p, 1280x720, 3800 kb/s)]
Аудио: AAC 48000Hz stereo 127kbps [A: SoundHandler [eng] (aac lc, 48000 Hz, stereo, 127 kb/s)]

Описание: Коннор Магуаер пригласил к себе Тэо Рейда во дворец для истинно королевского траха.
General
Complete name [MEN] Men Of Uk - A Royal Fuckfest, Part 1 - Connor Maguire & Theo Reid (720p).mp4
Format : MPEG-4
Format profile : Base Media
Codec ID : isom
File size : 735 MiB
Duration : 25mn 2s
Overall bit rate : 4 104 Kbps
Writing application : Lavf55.3.100

Video
ID : 1
Format : AVC
Format/Info : Advanced Video Codec
Format profile : High@L3.1
Format settings, CABAC : Yes
Format settings, ReFrames : 5 frames
Codec ID : avc1
Codec ID/Info : Advanced Video Coding
Duration : 25mn 2s
Bit rate : 3 800 Kbps
Width : 1 280 pixels
Height : 720 pixels
Display aspect ratio : 16:9
Frame rate mode : Constant
Frame rate : 23.976 fps
Color space : YUV
Chroma subsampling : 4:2:0
Bit depth : 8 bits
Scan type : Progressive
Bits/(Pixel*Frame) : 0.172
Stream size : 681 MiB (93%)
Writing library : x264 core 132 r2309 3b1f1f7

Audio
ID : 2
Format : AAC
Format/Info : Advanced Audio Codec
Format profile : LC
Codec ID : 40
Duration : 25mn 2s
Duration_LastFrame : 26ms
Bit rate mode : Constant
Bit rate : 128 Kbps
Channel(s) : 2 channels
Channel positions : Front: L R
Sampling rate : 48.0 KHz
Compression mode : Lossy
Stream size : 22.9 MiB (3%)
A Royal Fuckfest Part 2 | A Royal Fuckfest Part 3

Трекер:  [ 09-Янв-2016 07:00 ]

  

Скачать .torrent

Размер .torrent файла 15 KB


Размер: 735 MB
Хэш (hash) релиза: 95fb48a0a69f20f9e2b47f73ad34e43218df43c5

Еще никто не оставлял запись к записи скачать торрент [MEN.COM] A Royal Fuckfest Part 1 - Connor Maguire, Theo Reid . Будь первым!

!Обратная связь