Скачать через торрент Мужичок и Зефирка Ojisan to Marshmallow бесплатно Аниме Все серии на русском torrent

Если у вас наблюдаются проблемы со скриншотами, переходом по ссылками, скачиванием торрентов - проблемы в блокировщике рекламы AdBlock. #хорошегоДня!


Статистика раздачи
Размер:  55 MB   |    Зарегистрирован:  1 год 8 месяцев   |    .torrent скачан:  22 раза   |   
Раздают:  1  
   
Загрузка...
 
Автор Сообщение

Galfimbul

avatar Galfimbul


Мужичок и Зефирка / Ojisan to Marshmallow

Страна: Япония
Год выпуска: 2016 г.
Жанр: комедия, повседневность
Тип: TV
Продолжительность: 12 эп. по ~4 мин.
Режиссер: Сасаки Токиёси
Студия: Creators in Pack

Описание: Хигэ сложно назвать выдающимся человеком: он самый обычный офисный сотрудник средних лет, практически не выделяющийся из толпы. У него вполне заурядная внешность, лишний вес и приятный характер — иными словами, Хигэ не тянет на романтического загадочного героя и не таит в себе никаких шокирующих секретов. Впрочем, есть у Хигэ пламенная страсть, которую разделяет далеко не каждый: наш главный герой без ума от зефира — он готов поглощать любимое лакомство сутками напролет и даже видит его во сне.

Впрочем, надо полагать, есть в Хигэ нечто притягательное и очаровательное, поскольку одна из его сотрудниц, офисная леди Вакабаяши, однажды воспылала к нему нежными чувствами. Прекрасно зная, что путь к сердцу мужчины лежит через желудок, она взяла на вооружение зефир и принялась покорять своего прекрасного принца, при каждой возможности оказывая ему знаки внимания. Но получится ли у Вакабаяши, запасшейся сластями, добиться своего и к чему именно приведет их с Хигэ служебный роман — пока что совершенно не ясно.

Качество: HDTVRip
Тип релиза: Без хардсаба
Формат видео: MP4
Наличие линковки: Нет
Релиз/Автор рипа: Ohys-Raws
Видео: x264 (8 bit), 1280x720, ~2000 Kbps, 23.976 fps
Аудио JAP: AAC, 48000 Hz, ~200 Kbps, 2 ch
Субтитры RUS: ASS, внешние; Перевод: Sora_P3_Heaven
GeneralComplete name : C:\Documents and Settings\Администратор\Мои документы\Downloads\Ojisan to Marshmallow\[Ohys-Raws] Ojisan to Marshmallow - 01 (TVS 1280x720 x264 AAC).mp4Format : MPEG-4Format profile : Base MediaCodec ID : isomFile size : 55.2 MiBDuration : 3mn 30sOverall bit rate mode : VariableOverall bit rate : 2 206 KbpsEncoded date : UTC 2016-01-07 16:14:25Tagged date : UTC 2016-01-07 16:14:25

VideoID : 1Format : AVCFormat/Info : Advanced Video CodecFormat profile : Main@L4.1Format settings, CABAC : YesFormat settings, ReFrames : 4 framesCodec ID : avc1Codec ID/Info : Advanced Video CodingDuration : 3mn 30sBit rate : 2 003 KbpsMaximum bit rate : 7 217 KbpsWidth : 1 280 pixelsHeight : 720 pixelsDisplay aspect ratio : 16:9Frame rate mode : ConstantFrame rate : 23.976 fpsColor space : YUVChroma subsampling : 4:2:0Bit depth : 8 bitsScan type : ProgressiveBits/(Pixel*Frame) : 0.091Stream size : 50.1 MiB (91%)Writing library : x264 core 148 r2638 7599210Encoding settings : cabac=1 / ref=3 / deblock=1:0:0 / analyse=0x1:0x111 / me=hex / subme=7 / psy=1 / psy_rd=1.00:0.00 / mixed_ref=1 / me_range=16 / chroma_me=1 / trellis=1 / 8x8dct=0 / cqm=0 / deadzone=21,11 / fast_pskip=1 / chroma_qp_offset=-2 / threads=12 / lookahead_threads=2 / sliced_threads=0 / nr=0 / decimate=1 / interlaced=0 / bluray_compat=0 / constrained_intra=0 / bframes=3 / b_pyramid=2 / b_adapt=1 / b_bias=0 / direct=1 / weightb=1 / open_gop=0 / weightp=2 / keyint=240 / keyint_min=1 / scenecut=40 / intra_refresh=0 / rc_lookahead=40 / rc=crf / mbtree=1 / crf=20.0 / qcomp=0.60 / qpmin=0 / qpmax=69 / qpstep=4 / ip_ratio=1.40 / aq=1:1.50Encoded date : UTC 2016-01-07 16:14:25Tagged date : UTC 2016-01-07 16:14:26Color primaries : BT.709Transfer characteristics : BT.709Matrix coefficients : BT.709

AudioID : 2Format : AACFormat/Info : Advanced Audio CodecFormat profile : LCCodec ID : 40Duration : 3mn 30sBit rate mode : VariableBit rate : 199 KbpsMaximum bit rate : 234 KbpsChannel count : 2 channelsChannel positions : Front: L RSampling rate : 48.0 KHzCompression mode : LossyStream size : 4.99 MiB (9%)Language : JapaneseEncoded date : UTC 2016-01-07 16:12:51Tagged date : UTC 2016-01-07 16:14:26
Действие 1-е: Хиге и зефирка


Трекер:  [ 08-Янв-2016 23:30 ]

  

Скачать .torrent

Размер .torrent файла 18 KB


Размер: 55 MB
Хэш (hash) релиза: a94b086508ed98c8a7e70b6da0c964087bafe0cc
Подписка на обновления:

Торренты, похожие на Мужичок и Зефирка Ojisan to Marshmallow скачать торрент

Форум Название Автор Размер S L Добавлен
Аниме | Rips ·· Мужичок и Зефирка / Ojisan to Marshmallow (Сасаки Токиёси) [TV+Special] [12+1 из 12+1] [без хардсаба] [RUS(ext), JAP+SUB] [2016, комедия, повседневность, романтика, BDRip] [1080p] Galfimbul 40241474463.75 GB 0 0 1487053846

09:30

14-Фев-17

Аниме | Rips ·· Мужичок и Зефирка / Ojisan to Marshmallow [TV] [12 из 12] [Без хардсаба] [JAP, RUS(ext), SUB] [2016 г., комедия, повседневность, HDTVRip] [720p] Galfimbul 699693750667 MB 0 0 1460656148

20:49

14-Апр-16

Аниме | HD Rips ·· Мужичок и Зефирка / Ojisan to Marshmallow (Сасаки Токиёси) [TV] [Без хардсаба] [01-04 из 12] [JAP+SUB] & [01-03 из 12] [RUS(ext)] [2016 г., комедия, повседневность, HDTVRip] [720p] Galfimbul 212471951203 MB 0 0 1454142864

11:34

30-Янв-16

Аниме | HD Rips ·· Мужичок и Зефирка / Ojisan to Marshmallow (Сасаки Токиёси) [TV] [01-03 из 12] [Без хардсаба] [RUS(ext), JAP+SUB] [2016 г., комедия, повседневность, HDTVRip] [720p] Galfimbul 165075067157 MB 0 0 1453685113

04:25

25-Янв-16

Аниме | Rips ·· Мужичок и Зефирка / Ojisan to Marshmallow [TV] [2 из 12] [Без хардсаба] [JAP, RUS(ext), SUB] [2016 г., комедия, повседневность, HDTVRip] [720p] Galfimbul 121033166115 MB 0 0 1453066312

00:31

18-Янв-16

Аниме | Rips ·· Мужичок и Зефирка / Ojisan to Marshmallow [TV] [01 из 12] [Без хардсаба] [RUS(int), JAP, SUB] [2016 г., комедия, HDTVRip] [720p] Galfimbul 6719124864 MB 0 0 1452501051

11:30

11-Янв-16

Еще никто не оставлял запись к записи скачать торрент Мужичок и Зефирка Ojisan to Marshmallow . Будь первым!

!Обратная связь