Fabric of Time torrent

UnionPeer.org . . UnionPeer.org 2014 2015 . .

Fabric of Time .torrent

, , - AdBlock. #!


21.63 GB   |    :  6 3    |    .torrent :  80    |   
1  
   
...
 

sebladec

avatar sebladec


/ Fabric of time
: 2007
:
:
: 00:58:28
:
:
:

: 3D . , , . .

: Blu-Ray Disc
: ISO
3D: Blu-Ray3D
: MVC
: DTS-HD MA, AC3
: 1280x720p at 59.940 fps, MPEG-4 AVC, 11910 kbps
1: English DTS-HD Master Audio 5.1 / 48 kHz / 2399 kbps / 24-bit (DTS Core: 5.1 / 48 kHz / 1509 kbps / 24-bit)
2: English Dolby Digital Audio 2.0 / 48 kHz / 384 kbps / DN -4dB
Disc Title: FabricOfTime
Disc Size: 23219493852 bytes
Protection: AACS
BD-Java: No
Extras: Blu-ray 3D
BDInfo: 0.5.6

Notes:

BDINFO HOME:
Cinema Squid
http://www.cinemasquid.com/blu-ray/tools/bdinfo

INCLUDES FORUMS REPORT FOR:
AVS Forum Blu-ray Audio and Video Specifications Thread
http://www.avsforum.com/avs-vb/showthread.php?t=1155731

********************
PLAYLIST: 00002.MPLS
********************

<--- BEGIN FORUMS PASTE --->

:

Total Video
Title Codec Length Movie Size Disc Size Bitrate Bitrate Main Audio Track Secondary Audio Track
----- ------ ------- -------------- -------------- ------- ------- ------------------ ---------------------
00002.MPLS AVC 0:58:28 6918445056 23219493852 15,78 11,91 DTS-HD Master 5.1 2399Kbps (48kHz/24-bit)
[code]DISC INFO:

Disc Title: FabricOfTime
Disc Size: 23219493852 bytes
Protection: AACS
BD-Java: No
Extras: Blu-ray 3D
BDInfo: 0.5.6

PLAYLIST REPORT:

Name: 00002.MPLS
Length: 0:58:28 (h:m:s)
Size: 6918445056 bytes
Total Bitrate: 15,78 Mbps

VIDEO:

Codec Bitrate Description
----- ------- -----------
MPEG-4 AVC Video 11910 kbps 720p / 59,940 fps / 16:9 / High Profile 4.0

AUDIO:

Codec Language Bitrate Description
----- -------- ------- -----------
DTS-HD Master Audio English 2399 kbps 5.1 / 48 kHz / 2399 kbps / 24-bit (DTS Core: 5.1 / 48 kHz / 1509 kbps / 24-bit)
Dolby Digital Audio English 384 kbps 2.0 / 48 kHz / 384 kbps / DN -4dB

FILES:

Name Time In Length Size Total Bitrate
---- ------- ------ ---- -------------
00004.M2TS 0:00:00.000 0:58:28.555 6918445056 15775

CHAPTERS:

Number Time In Length Avg Video Rate Max 1-Sec Rate Max 1-Sec Time Max 5-Sec Rate Max 5-Sec Time Max 10Sec Rate Max 10Sec Time Avg Frame Size Max Frame Size Max Frame Time
------ ------- ------ -------------- -------------- -------------- -------------- -------------- -------------- -------------- -------------- -------------- --------------
1 0:00:00.000 0:58:28.555 11910 kbps 30191 kbps 00:48:05.666 24454 kbps 00:48:05.666 23405 kbps 00:41:03.110 24837 bytes 253441 bytes 00:48:05.682

STREAM DIAGNOSTICS:

File PID Type Codec Language Seconds Bitrate Bytes Packets
---- --- ---- ----- -------- -------------- -------------- ------------- -----
00004.M2TS 4113 (0x1011) 0x1B AVC 3508,522 11910 5223237926 28508217
00004.M2TS 4352 (0x1100) 0x86 DTS-HD MA eng (English) 3508,522 2399 1052003420 6263964
00004.M2TS 4353 (0x1101) 0x81 AC3 eng (English) 3508,522 384 168410112 986778[/code]
<---- END FORUMS PASTE ---->

QUICK SUMMARY:

Disc Title: FabricOfTime
Disc Size: 23219493852 bytes
Protection: AACS
BD-Java: No
Playlist: 00002.MPLS
Size: 6918445056 bytes
Length: 0:58:28
Total Bitrate: 15,78 Mbps
Video: MPEG-4 AVC Video / 11910 kbps / 720p / 59,940 fps / 16:9 / High Profile 4.0
Audio: English / DTS-HD Master Audio / 5.1 / 48 kHz / 2399 kbps / 24-bit (DTS Core: 5.1 / 48 kHz / 1509 kbps / 24-bit)
Audio: English / Dolby Digital Audio / 2.0 / 48 kHz / 384 kbps / DN -4dB

********************
PLAYLIST: 01003.MPLS
********************

<--- BEGIN FORUMS PASTE --->
[code]Total Video
Title Codec Length Movie Size Disc Size Bitrate Bitrate Main Audio Track Secondary Audio Track
----- ------ ------- -------------- -------------- ------- ------- ------------------ ---------------------
01003.MPLS AVC 0:58:28 6918445056 23219493852 15,78 11,91 DTS-HD Master 5.1 2399Kbps (48kHz/24-bit)[/code]
[code]DISC INFO:

Disc Title: FabricOfTime
Disc Size: 23219493852 bytes
Protection: AACS
BD-Java: No
Extras: Blu-ray 3D
BDInfo: 0.5.6

PLAYLIST REPORT:

Name: 01003.MPLS
Length: 0:58:28 (h:m:s)
Size: 6918445056 bytes
Total Bitrate: 15,78 Mbps

VIDEO:

Codec Bitrate Description
----- ------- -----------
MPEG-4 AVC Video 11910 kbps 720p / 59,940 fps / 16:9 / High Profile 4.0

AUDIO:

Codec Language Bitrate Description
----- -------- ------- -----------
DTS-HD Master Audio English 2399 kbps 5.1 / 48 kHz / 2399 kbps / 24-bit (DTS Core: 5.1 / 48 kHz / 1509 kbps / 24-bit)
Dolby Digital Audio English 384 kbps 2.0 / 48 kHz / 384 kbps / DN -4dB

FILES:

Name Time In Length Size Total Bitrate
---- ------- ------ ---- -------------
00004.M2TS 0:00:00.000 0:58:28.555 6918445056 15775

CHAPTERS:

Number Time In Length Avg Video Rate Max 1-Sec Rate Max 1-Sec Time Max 5-Sec Rate Max 5-Sec Time Max 10Sec Rate Max 10Sec Time Avg Frame Size Max Frame Size Max Frame Time
------ ------- ------ -------------- -------------- -------------- -------------- -------------- -------------- -------------- -------------- -------------- --------------
1 0:00:00.000 0:03:00.980 12855 kbps 21777 kbps 00:01:21.898 18329 kbps 00:02:43.079 17115 kbps 00:02:40.276 26806 bytes 238338 bytes 00:00:58.091
2 0:03:00.980 0:05:35.301 12553 kbps 24191 kbps 00:03:26.689 21313 kbps 00:03:26.456 20315 kbps 00:03:26.189 26179 bytes 237930 bytes 00:08:25.471
3 0:08:36.282 0:12:59.044 11760 kbps 29719 kbps 00:19:33.522 21878 kbps 00:19:33.522 21399 kbps 00:19:33.505 24524 bytes 249493 bytes 00:20:00.632
4 0:21:35.327 0:12:51.086 11874 kbps 28610 kbps 00:22:56.725 22235 kbps 00:28:37.015 20692 kbps 00:28:34.863 24762 bytes 251173 bytes 00:32:31.316
5 0:34:26.414 0:08:10.606 12376 kbps 29414 kbps 00:37:51.085 24358 kbps 00:41:02.960 23405 kbps 00:41:03.110 25809 bytes 251504 bytes 00:39:17.588
6 0:42:37.021 0:15:51.533 11414 kbps 30191 kbps 00:48:05.666 24454 kbps 00:48:05.666 22768 kbps 00:48:05.666 23805 bytes 253441 bytes 00:48:05.682

STREAM DIAGNOSTICS:

File PID Type Codec Language Seconds Bitrate Bytes Packets
---- --- ---- ----- -------- -------------- -------------- ------------- -----
00004.M2TS 4113 (0x1011) 0x1B AVC 3508,522 11910 5223237926 28508217
00004.M2TS 4352 (0x1100) 0x86 DTS-HD MA eng (English) 3508,522 2399 1052003420 6263964
00004.M2TS 4353 (0x1101) 0x81 AC3 eng (English) 3508,522 384 168410112 986778[/code]
<---- END FORUMS PASTE ---->

QUICK SUMMARY:

Disc Title: FabricOfTime
Disc Size: 23219493852 bytes
Protection: AACS
BD-Java: No
Playlist: 01003.MPLS
Size: 6918445056 bytes
Length: 0:58:28
Total Bitrate: 15,78 Mbps
Video: MPEG-4 AVC Video / 11910 kbps / 720p / 59,940 fps / 16:9 / High Profile 4.0
Audio: English / DTS-HD Master Audio / 5.1 / 48 kHz / 2399 kbps / 24-bit (DTS Core: 5.1 / 48 kHz / 1509 kbps / 24-bit)
Audio: English / Dolby Digital Audio / 2.0 / 48 kHz / 384 kbps / DN -4dB

********************
PLAYLIST: 00007.MPLS
********************

<--- BEGIN FORUMS PASTE --->
[code]Total Video
Title Codec Length Movie Size Disc Size Bitrate Bitrate Main Audio Track Secondary Audio Track
----- ------ ------- -------------- -------------- ------- ------- ------------------ ---------------------
00007.MPLS AVC 0:28:05 2358134784 23219493852 11,19 10,33 DD AC3 2.0 224Kbps[/code]
[code]DISC INFO:

Disc Title: FabricOfTime
Disc Size: 23219493852 bytes
Protection: AACS
BD-Java: No
Extras: Blu-ray 3D
BDInfo: 0.5.6

PLAYLIST REPORT:

Name: 00007.MPLS
Length: 0:28:05 (h:m:s)
Size: 2358134784 bytes
Total Bitrate: 11,19 Mbps

VIDEO:

Codec Bitrate Description
----- ------- -----------
MPEG-4 AVC Video 10335 kbps 720p / 59,940 fps / 16:9 / High Profile 4.0

AUDIO:

Codec Language Bitrate Description
----- -------- ------- -----------
Dolby Digital Audio English 224 kbps 2.0 / 48 kHz / 224 kbps / DN -4dB

FILES:

Name Time In Length Size Total Bitrate
---- ------- ------ ---- -------------
00014.M2TS 0:00:00.000 0:28:05.600 2358134784 11192

CHAPTERS:

Number Time In Length Avg Video Rate Max 1-Sec Rate Max 1-Sec Time Max 5-Sec Rate Max 5-Sec Time Max 10Sec Rate Max 10Sec Time Avg Frame Size Max Frame Size Max Frame Time
------ ------- ------ -------------- -------------- -------------- -------------- -------------- -------------- -------------- -------------- -------------- --------------
1 0:00:00.000 0:28:05.600 10335 kbps 17563 kbps 00:27:03.355 14676 kbps 00:27:03.154 13976 kbps 00:25:35.984 21552 bytes 152729 bytes 00:27:07.626

STREAM DIAGNOSTICS:

File PID Type Codec Language Seconds Bitrate Bytes Packets
---- --- ---- ----- -------- -------------- -------------- ------------- -----
00014.M2TS 4113 (0x1011) 0x1B AVC 1685,567 10335 2177499544 11886963
00014.M2TS 4352 (0x1100) 0x81 AC3 eng (English) 1685,567 224 47195904 263374[/code]
<---- END FORUMS PASTE ---->

QUICK SUMMARY:

Disc Title: FabricOfTime
Disc Size: 23219493852 bytes
Protection: AACS
BD-Java: No
Playlist: 00007.MPLS
Size: 2358134784 bytes
Length: 0:28:05
Total Bitrate: 11,19 Mbps
Video: MPEG-4 AVC Video / 10335 kbps / 720p / 59,940 fps / 16:9 / High Profile 4.0
Audio: English / Dolby Digital Audio / 2.0 / 48 kHz / 224 kbps / DN -4dB

********************
PLAYLIST: 01008.MPLS
********************

<--- BEGIN FORUMS PASTE --->
[code]Total Video
Title Codec Length Movie Size Disc Size Bitrate Bitrate Main Audio Track Secondary Audio Track
----- ------ ------- -------------- -------------- ------- ------- ------------------ ---------------------
01008.MPLS AVC 0:28:05 2358134784 23219493852 11,19 10,33 DD AC3 2.0 224Kbps[/code]
[code]DISC INFO:

Disc Title: FabricOfTime
Disc Size: 23219493852 bytes
Protection: AACS
BD-Java: No
Extras: Blu-ray 3D
BDInfo: 0.5.6

PLAYLIST REPORT:

Name: 01008.MPLS
Length: 0:28:05 (h:m:s)
Size: 2358134784 bytes
Total Bitrate: 11,19 Mbps

VIDEO:

Codec Bitrate Description
----- ------- -----------
MPEG-4 AVC Video 10335 kbps 720p / 59,940 fps / 16:9 / High Profile 4.0

AUDIO:

Codec Language Bitrate Description
----- -------- ------- -----------
Dolby Digital Audio English 224 kbps 2.0 / 48 kHz / 224 kbps / DN -4dB

FILES:

Name Time In Length Size Total Bitrate
---- ------- ------ ---- -------------
00014.M2TS 0:00:00.000 0:28:05.600 2358134784 11192

CHAPTERS:

Number Time In Length Avg Video Rate Max 1-Sec Rate Max 1-Sec Time Max 5-Sec Rate Max 5-Sec Time Max 10Sec Rate Max 10Sec Time Avg Frame Size Max Frame Size Max Frame Time
------ ------- ------ -------------- -------------- -------------- -------------- -------------- -------------- -------------- -------------- -------------- --------------
1 0:00:00.000 0:28:05.600 10335 kbps 17563 kbps 00:27:03.355 14676 kbps 00:27:03.154 13976 kbps 00:25:35.984 21552 bytes 152729 bytes 00:27:07.626

STREAM DIAGNOSTICS:

File PID Type Codec Language Seconds Bitrate Bytes Packets
---- --- ---- ----- -------- -------------- -------------- ------------- -----
00014.M2TS 4113 (0x1011) 0x1B AVC 1685,567 10335 2177499544 11886963
00014.M2TS 4352 (0x1100) 0x81 AC3 eng (English) 1685,567 224 47195904 263374[/code]
<---- END FORUMS PASTE ---->

QUICK SUMMARY:

Disc Title: FabricOfTime
Disc Size: 23219493852 bytes
Protection: AACS
BD-Java: No
Playlist: 01008.MPLS
Size: 2358134784 bytes
Length: 0:28:05
Total Bitrate: 11,19 Mbps
Video: MPEG-4 AVC Video / 10335 kbps / 720p / 59,940 fps / 16:9 / High Profile 4.0
Audio: English / Dolby Digital Audio / 2.0 / 48 kHz / 224 kbps / DN -4dB

********************
PLAYLIST: 00004.MPLS
********************

<--- BEGIN FORUMS PASTE --->
[code]Total Video
Title Codec Length Movie Size Disc Size Bitrate Bitrate Main Audio Track Secondary Audio Track
----- ------ ------- -------------- -------------- ------- ------- ------------------ ---------------------
00004.MPLS AVC 0:19:29 2001985536 23219493852 13,69 12,73 DD AC3 2.0 192Kbps[/code]
[code]DISC INFO:

Disc Title: FabricOfTime
Disc Size: 23219493852 bytes
Protection: AACS
BD-Java: No
Extras: Blu-ray 3D
BDInfo: 0.5.6

PLAYLIST REPORT:

Name: 00004.MPLS
Length: 0:19:29 (h:m:s)
Size: 2001985536 bytes
Total Bitrate: 13,69 Mbps

VIDEO:

Codec Bitrate Description
----- ------- -----------
MPEG-4 AVC Video 12726 kbps 720p / 59,940 fps / 16:9 / High Profile 4.0

AUDIO:

Codec Language Bitrate Description
----- -------- ------- -----------
Dolby Digital Audio English 192 kbps 2.0 / 48 kHz / 192 kbps / DN -4dB

FILES:

Name Time In Length Size Total Bitrate
---- ------- ------ ---- -------------
00008.M2TS 0:00:00.000 0:19:29.685 2001985536 13692

CHAPTERS:

Number Time In Length Avg Video Rate Max 1-Sec Rate Max 1-Sec Time Max 5-Sec Rate Max 5-Sec Time Max 10Sec Rate Max 10Sec Time Avg Frame Size Max Frame Size Max Frame Time
------ ------- ------ -------------- -------------- -------------- -------------- -------------- -------------- -------------- -------------- -------------- --------------
1 0:00:00.000 0:19:29.685 12726 kbps 19986 kbps 00:10:09.859 14569 kbps 00:01:02.495 13637 kbps 00:01:03.596 26539 bytes 218401 bytes 00:03:43.506

STREAM DIAGNOSTICS:

File PID Type Codec Language Seconds Bitrate Bytes Packets
---- --- ---- ----- -------- -------------- -------------- ------------- -----
00008.M2TS 4113 (0x1011) 0x1B AVC 1169,652 12726 1860656796 10153211
00008.M2TS 4352 (0x1100) 0x81 AC3 eng (English) 1169,652 192 28072704 182765[/code]
<---- END FORUMS PASTE ---->

QUICK SUMMARY:

Disc Title: FabricOfTime
Disc Size: 23219493852 bytes
Protection: AACS
BD-Java: No
Playlist: 00004.MPLS
Size: 2001985536 bytes
Length: 0:19:29
Total Bitrate: 13,69 Mbps
Video: MPEG-4 AVC Video / 12726 kbps / 720p / 59,940 fps / 16:9 / High Profile 4.0
Audio: English / Dolby Digital Audio / 2.0 / 48 kHz / 192 kbps / DN -4dB

********************
PLAYLIST: 01005.MPLS
********************

<--- BEGIN FORUMS PASTE --->
[code]Total Video
Title Codec Length Movie Size Disc Size Bitrate Bitrate Main Audio Track Secondary Audio Track
----- ------ ------- -------------- -------------- ------- ------- ------------------ ---------------------
01005.MPLS AVC 0:19:29 2001985536 23219493852 13,69 12,73 DD AC3 2.0 192Kbps[/code]
[code]DISC INFO:

Disc Title: FabricOfTime
Disc Size: 23219493852 bytes
Protection: AACS
BD-Java: No
Extras: Blu-ray 3D
BDInfo: 0.5.6

PLAYLIST REPORT:

Name: 01005.MPLS
Length: 0:19:29 (h:m:s)
Size: 2001985536 bytes
Total Bitrate: 13,69 Mbps

VIDEO:

Codec Bitrate Description
----- ------- -----------
MPEG-4 AVC Video 12726 kbps 720p / 59,940 fps / 16:9 / High Profile 4.0

AUDIO:

Codec Language Bitrate Description
----- -------- ------- -----------
Dolby Digital Audio English 192 kbps 2.0 / 48 kHz / 192 kbps / DN -4dB

FILES:

Name Time In Length Size Total Bitrate
---- ------- ------ ---- -------------
00008.M2TS 0:00:00.000 0:19:29.685 2001985536 13692

CHAPTERS:

Number Time In Length Avg Video Rate Max 1-Sec Rate Max 1-Sec Time Max 5-Sec Rate Max 5-Sec Time Max 10Sec Rate Max 10Sec Time Avg Frame Size Max Frame Size Max Frame Time
------ ------- ------ -------------- -------------- -------------- -------------- -------------- -------------- -------------- -------------- -------------- --------------
1 0:00:00.000 0:19:29.685 12726 kbps 19986 kbps 00:10:09.859 14569 kbps 00:01:02.495 13637 kbps 00:01:03.596 26539 bytes 218401 bytes 00:03:43.506

STREAM DIAGNOSTICS:

File PID Type Codec Language Seconds Bitrate Bytes Packets
---- --- ---- ----- -------- -------------- -------------- ------------- -----
00008.M2TS 4113 (0x1011) 0x1B AVC 1169,652 12726 1860656796 10153211
00008.M2TS 4352 (0x1100) 0x81 AC3 eng (English) 1169,652 192 28072704 182765[/code]
<---- END FORUMS PASTE ---->

QUICK SUMMARY:

Disc Title: FabricOfTime
Disc Size: 23219493852 bytes
Protection: AACS
BD-Java: No
Playlist: 01005.MPLS
Size: 2001985536 bytes
Length: 0:19:29
Total Bitrate: 13,69 Mbps
Video: MPEG-4 AVC Video / 12726 kbps / 720p / 59,940 fps / 16:9 / High Profile 4.0
Audio: English / Dolby Digital Audio / 2.0 / 48 kHz / 192 kbps / DN -4dB

********************
PLAYLIST: 00006.MPLS
********************

<--- BEGIN FORUMS PASTE --->
[code]Total Video
Title Codec Length Movie Size Disc Size Bitrate Bitrate Main Audio Track Secondary Audio Track
----- ------ ------- -------------- -------------- ------- ------- ------------------ ---------------------
00006.MPLS AVC 0:10:47 1122287616 23219493852 13,88 12,90 DD AC3 2.0 224Kbps[/code]
[code]DISC INFO:

Disc Title: FabricOfTime
Disc Size: 23219493852 bytes
Protection: AACS
BD-Java: No
Extras: Blu-ray 3D
BDInfo: 0.5.6

PLAYLIST REPORT:

Name: 00006.MPLS
Length: 0:10:47 (h:m:s)
Size: 1122287616 bytes
Total Bitrate: 13,88 Mbps

VIDEO:

Codec Bitrate Description
----- ------- -----------
MPEG-4 AVC Video 12900 kbps 720p / 59,940 fps / 16:9 / High Profile 4.0

AUDIO:

Codec Language Bitrate Description
----- -------- ------- -----------
Dolby Digital Audio English 224 kbps 2.0 / 48 kHz / 224 kbps / DN -4dB

FILES:

Name Time In Length Size Total Bitrate
---- ------- ------ ---- -------------
00012.M2TS 0:00:00.000 0:10:47.029 1122287616 13876

CHAPTERS:

Number Time In Length Avg Video Rate Max 1-Sec Rate Max 1-Sec Time Max 5-Sec Rate Max 5-Sec Time Max 10Sec Rate Max 10Sec Time Avg Frame Size Max Frame Size Max Frame Time
------ ------- ------ -------------- -------------- -------------- -------------- -------------- -------------- -------------- -------------- -------------- --------------
1 0:00:00.000 0:10:47.029 12900 kbps 20204 kbps 00:09:11.601 14857 kbps 00:06:45.755 14052 kbps 00:04:58.348 26903 bytes 244431 bytes 00:07:15.134

STREAM DIAGNOSTICS:

File PID Type Codec Language Seconds Bitrate Bytes Packets
---- --- ---- ----- -------- -------------- -------------- ------------- -----
00012.M2TS 4113 (0x1011) 0x1B AVC 646,996 12901 1043363866 5693129
00012.M2TS 4352 (0x1100) 0x81 AC3 eng (English) 646,996 224 18117120 101100[/code]
<---- END FORUMS PASTE ---->

QUICK SUMMARY:

Disc Title: FabricOfTime
Disc Size: 23219493852 bytes
Protection: AACS
BD-Java: No
Playlist: 00006.MPLS
Size: 1122287616 bytes
Length: 0:10:47
Total Bitrate: 13,88 Mbps
Video: MPEG-4 AVC Video / 12900 kbps / 720p / 59,940 fps / 16:9 / High Profile 4.0
Audio: English / Dolby Digital Audio / 2.0 / 48 kHz / 224 kbps / DN -4dB

********************
PLAYLIST: 01007.MPLS
********************

<--- BEGIN FORUMS PASTE --->
[code]Total Video
Title Codec Length Movie Size Disc Size Bitrate Bitrate Main Audio Track Secondary Audio Track
----- ------ ------- -------------- -------------- ------- ------- ------------------ ---------------------
01007.MPLS AVC 0:10:47 1122287616 23219493852 13,88 12,90 DD AC3 2.0 224Kbps[/code]
[code]DISC INFO:

Disc Title: FabricOfTime
Disc Size: 23219493852 bytes
Protection: AACS
BD-Java: No
Extras: Blu-ray 3D
BDInfo: 0.5.6

PLAYLIST REPORT:

Name: 01007.MPLS
Length: 0:10:47 (h:m:s)
Size: 1122287616 bytes
Total Bitrate: 13,88 Mbps

VIDEO:

Codec Bitrate Description
----- ------- -----------
MPEG-4 AVC Video 12900 kbps 720p / 59,940 fps / 16:9 / High Profile 4.0

AUDIO:

Codec Language Bitrate Description
----- -------- ------- -----------
Dolby Digital Audio English 224 kbps 2.0 / 48 kHz / 224 kbps / DN -4dB

FILES:

Name Time In Length Size Total Bitrate
---- ------- ------ ---- -------------
00012.M2TS 0:00:00.000 0:10:47.029 1122287616 13876

CHAPTERS:

Number Time In Length Avg Video Rate Max 1-Sec Rate Max 1-Sec Time Max 5-Sec Rate Max 5-Sec Time Max 10Sec Rate Max 10Sec Time Avg Frame Size Max Frame Size Max Frame Time
------ ------- ------ -------------- -------------- -------------- -------------- -------------- -------------- -------------- -------------- -------------- --------------
1 0:00:00.000 0:10:47.029 12900 kbps 20204 kbps 00:09:11.601 14857 kbps 00:06:45.755 14052 kbps 00:04:58.348 26903 bytes 244431 bytes 00:07:15.134

STREAM DIAGNOSTICS:

File PID Type Codec Language Seconds Bitrate Bytes Packets
---- --- ---- ----- -------- -------------- -------------- ------------- -----
00012.M2TS 4113 (0x1011) 0x1B AVC 646,996 12901 1043363866 5693129
00012.M2TS 4352 (0x1100) 0x81 AC3 eng (English) 646,996 224 18117120 101100[/code]
<---- END FORUMS PASTE ---->

QUICK SUMMARY:

Disc Title: FabricOfTime
Disc Size: 23219493852 bytes
Protection: AACS
BD-Java: No
Playlist: 01007.MPLS
Size: 1122287616 bytes
Length: 0:10:47
Total Bitrate: 13,88 Mbps
Video: MPEG-4 AVC Video / 12900 kbps / 720p / 59,940 fps / 16:9 / High Profile 4.0
Audio: English / Dolby Digital Audio / 2.0 / 48 kHz / 224 kbps / DN -4dB

********************
PLAYLIST: 00008.MPLS
********************

<--- BEGIN FORUMS PASTE --->
[code]Total Video
Title Codec Length Movie Size Disc Size Bitrate Bitrate Main Audio Track Secondary Audio Track
----- ------ ------- -------------- -------------- ------- ------- ------------------ ---------------------
00008.MPLS AVC 0:10:41 1302085632 23219493852 16,23 15,16 DD AC3 2.0 224Kbps[/code]
[code]DISC INFO:

Disc Title: FabricOfTime
Disc Size: 23219493852 bytes
Protection: AACS
BD-Java: No
Extras: Blu-ray 3D
BDInfo: 0.5.6

PLAYLIST REPORT:

Name: 00008.MPLS
Length: 0:10:41 (h:m:s)
Size: 1302085632 bytes
Total Bitrate: 16,23 Mbps

VIDEO:

Codec Bitrate Description
----- ------- -----------
MPEG-4 AVC Video 15163 kbps 720p / 59,940 fps / 16:9 / High Profile 4.0

AUDIO:

Codec Language Bitrate Description
----- -------- ------- -----------
Dolby Digital Audio English 224 kbps 2.0 / 48 kHz / 224 kbps / DN -4dB

FILES:

Name Time In Length Size Total Bitrate
---- ------- ------ ---- -------------
00016.M2TS 0:00:00.000 0:10:41.624 1302085632 16235

CHAPTERS:

Number Time In Length Avg Video Rate Max 1-Sec Rate Max 1-Sec Time Max 5-Sec Rate Max 5-Sec Time Max 10Sec Rate Max 10Sec Time Avg Frame Size Max Frame Size Max Frame Time
------ ------- ------ -------------- -------------- -------------- -------------- -------------- -------------- -------------- -------------- -------------- --------------
1 0:00:00.000 0:10:41.624 15163 kbps 22762 kbps 00:03:23.419 17091 kbps 00:06:02.812 16095 kbps 00:07:13.816 31620 bytes 280101 bytes 00:06:20.313

STREAM DIAGNOSTICS:

File PID Type Codec Language Seconds Bitrate Bytes Packets
---- --- ---- ----- -------- -------------- -------------- ------------- -----
00016.M2TS 4113 (0x1011) 0x1B AVC 641,591 15163 1216088632 6631416
00016.M2TS 4352 (0x1100) 0x81 AC3 eng (English) 641,591 224 17965696 100255[/code]
<---- END FORUMS PASTE ---->

QUICK SUMMARY:

Disc Title: FabricOfTime
Disc Size: 23219493852 bytes
Protection: AACS
BD-Java: No
Playlist: 00008.MPLS
Size: 1302085632 bytes
Length: 0:10:41
Total Bitrate: 16,23 Mbps
Video: MPEG-4 AVC Video / 15163 kbps / 720p / 59,940 fps / 16:9 / High Profile 4.0
Audio: English / Dolby Digital Audio / 2.0 / 48 kHz / 224 kbps / DN -4dB

********************
PLAYLIST: 01009.MPLS
********************

<--- BEGIN FORUMS PASTE --->
[code]Total Video
Title Codec Length Movie Size Disc Size Bitrate Bitrate Main Audio Track Secondary Audio Track
----- ------ ------- -------------- -------------- ------- ------- ------------------ ---------------------
01009.MPLS AVC 0:10:41 1302085632 23219493852 16,23 15,16 DD AC3 2.0 224Kbps[/code]
[code]DISC INFO:

Disc Title: FabricOfTime
Disc Size: 23219493852 bytes
Protection: AACS
BD-Java: No
Extras: Blu-ray 3D
BDInfo: 0.5.6

PLAYLIST REPORT:

Name: 01009.MPLS
Length: 0:10:41 (h:m:s)
Size: 1302085632 bytes
Total Bitrate: 16,23 Mbps

VIDEO:

Codec Bitrate Description
----- ------- -----------
MPEG-4 AVC Video 15163 kbps 720p / 59,940 fps / 16:9 / High Profile 4.0

AUDIO:

Codec Language Bitrate Description
----- -------- ------- -----------
Dolby Digital Audio English 224 kbps 2.0 / 48 kHz / 224 kbps / DN -4dB

FILES:

Name Time In Length Size Total Bitrate
---- ------- ------ ---- -------------
00016.M2TS 0:00:00.000 0:10:41.624 1302085632 16235

CHAPTERS:

Number Time In Length Avg Video Rate Max 1-Sec Rate Max 1-Sec Time Max 5-Sec Rate Max 5-Sec Time Max 10Sec Rate Max 10Sec Time Avg Frame Size Max Frame Size Max Frame Time
------ ------- ------ -------------- -------------- -------------- -------------- -------------- -------------- -------------- -------------- -------------- --------------
1 0:00:00.000 0:10:41.624 15163 kbps 22762 kbps 00:03:23.419 17091 kbps 00:06:02.812 16095 kbps 00:07:13.816 31620 bytes 280101 bytes 00:06:20.313

STREAM DIAGNOSTICS:

File PID Type Codec Language Seconds Bitrate Bytes Packets
---- --- ---- ----- -------- -------------- -------------- ------------- -----
00016.M2TS 4113 (0x1011) 0x1B AVC 641,591 15163 1216088632 6631416
00016.M2TS 4352 (0x1100) 0x81 AC3 eng (English) 641,591 224 17965696 100255[/code]
<---- END FORUMS PASTE ---->

QUICK SUMMARY:

Disc Title: FabricOfTime
Disc Size: 23219493852 bytes
Protection: AACS
BD-Java: No
Playlist: 01009.MPLS
Size: 1302085632 bytes
Length: 0:10:41
Total Bitrate: 16,23 Mbps
Video: MPEG-4 AVC Video / 15163 kbps / 720p / 59,940 fps / 16:9 / High Profile 4.0
Audio: English / Dolby Digital Audio / 2.0 / 48 kHz / 224 kbps / DN -4dB

********************
PLAYLIST: 00011.MPLS
********************

<--- BEGIN FORUMS PASTE --->
[code]Total Video
Title Codec Length Movie Size Disc Size Bitrate Bitrate Main Audio Track Secondary Audio Track
----- ------ ------- -------------- -------------- ------- ------- ------------------ ---------------------
00011.MPLS AVC 0:09:12 942231552 23219493852 13,66 12,69 DD AC3 2.0 224Kbps[/code]
[code]DISC INFO:

Disc Title: FabricOfTime
Disc Size: 23219493852 bytes
Protection: AACS
BD-Java: No
Extras: Blu-ray 3D
BDInfo: 0.5.6

PLAYLIST REPORT:

Name: 00011.MPLS
Length: 0:09:12 (h:m:s)
Size: 942231552 bytes
Total Bitrate: 13,66 Mbps

VIDEO:

Codec Bitrate Description
----- ------- -----------
MPEG-4 AVC Video 12691 kbps 720p / 59,940 fps / 16:9 / High Profile 4.0

AUDIO:

Codec Language Bitrate Description
----- -------- ------- -----------
Dolby Digital Audio English 224 kbps 2.0 / 48 kHz / 224 kbps / DN -4dB

FILES:

Name Time In Length Size Total Bitrate
---- ------- ------ ---- -------------
00022.M2TS 0:00:00.000 0:09:12.001 942231552 13655

CHAPTERS:

Number Time In Length Avg Video Rate Max 1-Sec Rate Max 1-Sec Time Max 5-Sec Rate Max 5-Sec Time Max 10Sec Rate Max 10Sec Time Avg Frame Size Max Frame Size Max Frame Time
------ ------- ------ -------------- -------------- -------------- -------------- -------------- -------------- -------------- -------------- -------------- --------------
1 0:00:00.000 0:09:12.001 12691 kbps 19502 kbps 00:06:18.144 14835 kbps 00:08:59.222 13980 kbps 00:01:34.477 26466 bytes 276798 bytes 00:04:21.661

STREAM DIAGNOSTICS:

File PID Type Codec Language Seconds Bitrate Bytes Packets
---- --- ---- ----- -------- -------------- -------------- ------------- -----
00022.M2TS 4113 (0x1011) 0x1B AVC 551,968 12691 875662471 4778179
00022.M2TS 4352 (0x1100) 0x81 AC3 eng (English) 551,968 224 15456000 86250[/code]
<---- END FORUMS PASTE ---->

QUICK SUMMARY:

Disc Title: FabricOfTime
Disc Size: 23219493852 bytes
Protection: AACS
BD-Java: No
Playlist: 00011.MPLS
Size: 942231552 bytes
Length: 0:09:12
Total Bitrate: 13,66 Mbps
Video: MPEG-4 AVC Video / 12691 kbps / 720p / 59,940 fps / 16:9 / High Profile 4.0
Audio: English / Dolby Digital Audio / 2.0 / 48 kHz / 224 kbps / DN -4dB

********************
PLAYLIST: 01012.MPLS
********************

<--- BEGIN FORUMS PASTE --->
[code]Total Video
Title Codec Length Movie Size Disc Size Bitrate Bitrate Main Audio Track Secondary Audio Track
----- ------ ------- -------------- -------------- ------- ------- ------------------ ---------------------
01012.MPLS AVC 0:09:12 942231552 23219493852 13,66 12,69 DD AC3 2.0 224Kbps[/code]
[code]DISC INFO:

Disc Title: FabricOfTime
Disc Size: 23219493852 bytes
Protection: AACS
BD-Java: No
Extras: Blu-ray 3D
BDInfo: 0.5.6

PLAYLIST REPORT:

Name: 01012.MPLS
Length: 0:09:12 (h:m:s)
Size: 942231552 bytes
Total Bitrate: 13,66 Mbps

VIDEO:

Codec Bitrate Description
----- ------- -----------
MPEG-4 AVC Video 12691 kbps 720p / 59,940 fps / 16:9 / High Profile 4.0

AUDIO:

Codec Language Bitrate Description
----- -------- ------- -----------
Dolby Digital Audio English 224 kbps 2.0 / 48 kHz / 224 kbps / DN -4dB

FILES:

Name Time In Length Size Total Bitrate
---- ------- ------ ---- -------------
00022.M2TS 0:00:00.000 0:09:12.001 942231552 13655

CHAPTERS:

Number Time In Length Avg Video Rate Max 1-Sec Rate Max 1-Sec Time Max 5-Sec Rate Max 5-Sec Time Max 10Sec Rate Max 10Sec Time Avg Frame Size Max Frame Size Max Frame Time
------ ------- ------ -------------- -------------- -------------- -------------- -------------- -------------- -------------- -------------- -------------- --------------
1 0:00:00.000 0:09:12.001 12691 kbps 19502 kbps 00:06:18.144 14835 kbps 00:08:59.222 13980 kbps 00:01:34.477 26466 bytes 276798 bytes 00:04:21.661

STREAM DIAGNOSTICS:

File PID Type Codec Language Seconds Bitrate Bytes Packets
---- --- ---- ----- -------- -------------- -------------- ------------- -----
00022.M2TS 4113 (0x1011) 0x1B AVC 551,968 12691 875662471 4778179
00022.M2TS 4352 (0x1100) 0x81 AC3 eng (English) 551,968 224 15456000 86250[/code]
<---- END FORUMS PASTE ---->

QUICK SUMMARY:

Disc Title: FabricOfTime
Disc Size: 23219493852 bytes
Protection: AACS
BD-Java: No
Playlist: 01012.MPLS
Size: 942231552 bytes
Length: 0:09:12
Total Bitrate: 13,66 Mbps
Video: MPEG-4 AVC Video / 12691 kbps / 720p / 59,940 fps / 16:9 / High Profile 4.0
Audio: English / Dolby Digital Audio / 2.0 / 48 kHz / 224 kbps / DN -4dB

********************
PLAYLIST: 00003.MPLS
********************

<--- BEGIN FORUMS PASTE --->
[code]Total Video
Title Codec Length Movie Size Disc Size Bitrate Bitrate Main Audio Track Secondary Audio Track
----- ------ ------- -------------- -------------- ------- ------- ------------------ ---------------------
00003.MPLS AVC 0:06:16 707788800 23219493852 15,05 14,03 DD AC3 2.0 224Kbps[/code]
[code]DISC INFO:

Disc Title: FabricOfTime
Disc Size: 23219493852 bytes
Protection: AACS
BD-Java: No
Extras: Blu-ray 3D
BDInfo: 0.5.6

PLAYLIST REPORT:

Name: 00003.MPLS
Length: 0:06:16 (h:m:s)
Size: 707788800 bytes
Total Bitrate: 15,05 Mbps

VIDEO:

Codec Bitrate Description
----- ------- -----------
MPEG-4 AVC Video 14032 kbps 720p / 59,940 fps / 16:9 / High Profile 4.0

AUDIO:

Codec Language Bitrate Description
----- -------- ------- -----------
Dolby Digital Audio English 224 kbps 2.0 / 48 kHz / 224 kbps / DN -4dB

FILES:

Name Time In Length Size Total Bitrate
---- ------- ------ ---- -------------
00006.M2TS 0:00:00.000 0:06:16.225 707788800 15050

CHAPTERS:

Number Time In Length Avg Video Rate Max 1-Sec Rate Max 1-Sec Time Max 5-Sec Rate Max 5-Sec Time Max 10Sec Rate Max 10Sec Time Avg Frame Size Max Frame Size Max Frame Time
------ ------- ------ -------------- -------------- -------------- -------------- -------------- -------------- -------------- -------------- -------------- --------------
1 0:00:00.000 0:06:16.225 14032 kbps 17828 kbps 00:00:06.122 16231 kbps 00:00:05.221 15859 kbps 00:00:05.155 29262 bytes 163309 bytes 00:00:27.660

STREAM DIAGNOSTICS:

File PID Type Codec Language Seconds Bitrate Bytes Packets
---- --- ---- ----- -------- -------------- -------------- ------------- -----
00006.M2TS 4113 (0x1011) 0x1B AVC 376,192 14033 659879244 3598010
00006.M2TS 4352 (0x1100) 0x81 AC3 eng (English) 376,192 224 10534272 58785[/code]
<---- END FORUMS PASTE ---->

QUICK SUMMARY:

Disc Title: FabricOfTime
Disc Size: 23219493852 bytes
Protection: AACS
BD-Java: No
Playlist: 00003.MPLS
Size: 707788800 bytes
Length: 0:06:16
Total Bitrate: 15,05 Mbps
Video: MPEG-4 AVC Video / 14032 kbps / 720p / 59,940 fps / 16:9 / High Profile 4.0
Audio: English / Dolby Digital Audio / 2.0 / 48 kHz / 224 kbps / DN -4dB

********************
PLAYLIST: 01004.MPLS
********************

<--- BEGIN FORUMS PASTE --->
[code]Total Video
Title Codec Length Movie Size Disc Size Bitrate Bitrate Main Audio Track Secondary Audio Track
----- ------ ------- -------------- -------------- ------- ------- ------------------ ---------------------
01004.MPLS AVC 0:06:16 707788800 23219493852 15,05 14,03 DD AC3 2.0 224Kbps[/code]
[code]DISC INFO:

Disc Title: FabricOfTime
Disc Size: 23219493852 bytes
Protection: AACS
BD-Java: No
Extras: Blu-ray 3D
BDInfo: 0.5.6

PLAYLIST REPORT:

Name: 01004.MPLS
Length: 0:06:16 (h:m:s)
Size: 707788800 bytes
Total Bitrate: 15,05 Mbps

VIDEO:

Codec Bitrate Description
----- ------- -----------
MPEG-4 AVC Video 14032 kbps 720p / 59,940 fps / 16:9 / High Profile 4.0

AUDIO:

Codec Language Bitrate Description
----- -------- ------- -----------
Dolby Digital Audio English 224 kbps 2.0 / 48 kHz / 224 kbps / DN -4dB

FILES:

Name Time In Length Size Total Bitrate
---- ------- ------ ---- -------------
00006.M2TS 0:00:00.000 0:06:16.225 707788800 15050

CHAPTERS:

Number Time In Length Avg Video Rate Max 1-Sec Rate Max 1-Sec Time Max 5-Sec Rate Max 5-Sec Time Max 10Sec Rate Max 10Sec Time Avg Frame Size Max Frame Size Max Frame Time
------ ------- ------ -------------- -------------- -------------- -------------- -------------- -------------- -------------- -------------- -------------- --------------
1 0:00:00.000 0:06:16.225 14032 kbps 17828 kbps 00:00:06.122 16231 kbps 00:00:05.221 15859 kbps 00:00:05.155 29262 bytes 163309 bytes 00:00:27.660

STREAM DIAGNOSTICS:

File PID Type Codec Language Seconds Bitrate Bytes Packets
---- --- ---- ----- -------- -------------- -------------- ------------- -----
00006.M2TS 4113 (0x1011) 0x1B AVC 376,192 14033 659879244 3598010
00006.M2TS 4352 (0x1100) 0x81 AC3 eng (English) 376,192 224 10534272 58785[/code]
<---- END FORUMS PASTE ---->

QUICK SUMMARY:

Disc Title: FabricOfTime
Disc Size: 23219493852 bytes
Protection: AACS
BD-Java: No
Playlist: 01004.MPLS
Size: 707788800 bytes
Length: 0:06:16
Total Bitrate: 15,05 Mbps
Video: MPEG-4 AVC Video / 14032 kbps / 720p / 59,940 fps / 16:9 / High Profile 4.0
Audio: English / Dolby Digital Audio / 2.0 / 48 kHz / 224 kbps / DN -4dB

********************
PLAYLIST: 00001.MPLS
********************

<--- BEGIN FORUMS PASTE --->
[code]Total Video
Title Codec Length Movie Size Disc Size Bitrate Bitrate Main Audio Track Secondary Audio Track
----- ------ ------- -------------- -------------- ------- ------- ------------------ ---------------------
00001.MPLS AVC 0:04:52 642557952 23219493852 17,56 16,44 DD AC3 2.0 192Kbps[/code]
[code]DISC INFO:

Disc Title: FabricOfTime
Disc Size: 23219493852 bytes
Protection: AACS
BD-Java: No
Extras: Blu-ray 3D
BDInfo: 0.5.6

PLAYLIST REPORT:

Name: 00001.MPLS
Length: 0:04:52 (h:m:s)
Size: 642557952 bytes
Total Bitrate: 17,56 Mbps

VIDEO:

Codec Bitrate Description
----- ------- -----------
MPEG-4 AVC Video 16437 kbps 720p / 59,940 fps / 16:9 / High Profile 4.1

AUDIO:

Codec Language Bitrate Description
----- -------- ------- -----------
Dolby Digital Audio English 192 kbps 2.0 / 48 kHz / 192 kbps / DN -4dB

FILES:

Name Time In Length Size Total Bitrate
---- ------- ------ ---- -------------
00002.M2TS 0:00:00.000 0:04:52.709 642557952 17562

CHAPTERS:

Number Time In Length Avg Video Rate Max 1-Sec Rate Max 1-Sec Time Max 5-Sec Rate Max 5-Sec Time Max 10Sec Rate Max 10Sec Time Avg Frame Size Max Frame Size Max Frame Time
------ ------- ------ -------------- -------------- -------------- -------------- -------------- -------------- -------------- -------------- -------------- --------------
1 0:00:00.000 0:04:52.709 16437 kbps 31221 kbps 00:03:20.383 24752 kbps 00:01:20.280 21702 kbps 00:03:42.288 34280 bytes 280227 bytes 00:01:48.374

STREAM DIAGNOSTICS:

File PID Type Codec Language Seconds Bitrate Bytes Packets
---- --- ---- ----- -------- -------------- -------------- ------------- -----
00002.M2TS 4113 (0x1011) 0x1B AVC 292,676 16439 601416445 3278473
00002.M2TS 4352 (0x1100) 0x81 AC3 eng (English) 292,676 192 7024896 45735[/code]
<---- END FORUMS PASTE ---->

QUICK SUMMARY:

Disc Title: FabricOfTime
Disc Size: 23219493852 bytes
Protection: AACS
BD-Java: No
Playlist: 00001.MPLS
Size: 642557952 bytes
Length: 0:04:52
Total Bitrate: 17,56 Mbps
Video: MPEG-4 AVC Video / 16437 kbps / 720p / 59,940 fps / 16:9 / High Profile 4.1
Audio: English / Dolby Digital Audio / 2.0 / 48 kHz / 192 kbps / DN -4dB

********************
PLAYLIST: 01002.MPLS
********************

<--- BEGIN FORUMS PASTE --->
[code]Total Video
Title Codec Length Movie Size Disc Size Bitrate Bitrate Main Audio Track Secondary Audio Track
----- ------ ------- -------------- -------------- ------- ------- ------------------ ---------------------
01002.MPLS AVC 0:04:52 642557952 23219493852 17,56 16,44 DD AC3 2.0 192Kbps[/code]
[code]DISC INFO:

Disc Title: FabricOfTime
Disc Size: 23219493852 bytes
Protection: AACS
BD-Java: No
Extras: Blu-ray 3D
BDInfo: 0.5.6

PLAYLIST REPORT:

Name: 01002.MPLS
Length: 0:04:52 (h:m:s)
Size: 642557952 bytes
Total Bitrate: 17,56 Mbps

VIDEO:

Codec Bitrate Description
----- ------- -----------
MPEG-4 AVC Video 16437 kbps 720p / 59,940 fps / 16:9 / High Profile 4.1

AUDIO:

Codec Language Bitrate Description
----- -------- ------- -----------
Dolby Digital Audio English 192 kbps 2.0 / 48 kHz / 192 kbps / DN -4dB

FILES:

Name Time In Length Size Total Bitrate
---- ------- ------ ---- -------------
00002.M2TS 0:00:00.000 0:04:52.709 642557952 17562

CHAPTERS:

Number Time In Length Avg Video Rate Max 1-Sec Rate Max 1-Sec Time Max 5-Sec Rate Max 5-Sec Time Max 10Sec Rate Max 10Sec Time Avg Frame Size Max Frame Size Max Frame Time
------ ------- ------ -------------- -------------- -------------- -------------- -------------- -------------- -------------- -------------- -------------- --------------
1 0:00:00.000 0:04:52.709 16437 kbps 31221 kbps 00:03:20.383 24752 kbps 00:01:20.280 21702 kbps 00:03:42.288 34280 bytes 280227 bytes 00:01:48.374

STREAM DIAGNOSTICS:

File PID Type Codec Language Seconds Bitrate Bytes Packets
---- --- ---- ----- -------- -------------- -------------- ------------- -----
00002.M2TS 4113 (0x1011) 0x1B AVC 292,676 16439 601416445 3278473
00002.M2TS 4352 (0x1100) 0x81 AC3 eng (English) 292,676 192 7024896 45735[/code]
<---- END FORUMS PASTE ---->

QUICK SUMMARY:

Disc Title: FabricOfTime
Disc Size: 23219493852 bytes
Protection: AACS
BD-Java: No
Playlist: 01002.MPLS
Size: 642557952 bytes
Length: 0:04:52
Total Bitrate: 17,56 Mbps
Video: MPEG-4 AVC Video / 16437 kbps / 720p / 59,940 fps / 16:9 / High Profile 4.1
Audio: English / Dolby Digital Audio / 2.0 / 48 kHz / 192 kbps / DN -4dB

********************
PLAYLIST: 00010.MPLS
********************

<--- BEGIN FORUMS PASTE --->
[code]Total Video
Title Codec Length Movie Size Disc Size Bitrate Bitrate Main Audio Track Secondary Audio Track
----- ------ ------- -------------- -------------- ------- ------- ------------------ ---------------------
00010.MPLS AVC 0:04:08 437698560 23219493852 14,10 13,12 DD AC3 2.0 224Kbps[/code]
[code]DISC INFO:

Disc Title: FabricOfTime
Disc Size: 23219493852 bytes
Protection: AACS
BD-Java: No
Extras: Blu-ray 3D
BDInfo: 0.5.6

PLAYLIST REPORT:

Name: 00010.MPLS
Length: 0:04:08 (h:m:s)
Size: 437698560 bytes
Total Bitrate: 14,10 Mbps

VIDEO:

Codec Bitrate Description
----- ------- -----------
MPEG-4 AVC Video 13116 kbps 720p / 59,940 fps / 16:9 / High Profile 4.0

AUDIO:

Codec Language Bitrate Description
----- -------- ------- -----------
Dolby Digital Audio English 224 kbps 2.0 / 48 kHz / 224 kbps / DN -4dB

FILES:

Name Time In Length Size Total Bitrate
---- ------- ------ ---- -------------
00020.M2TS 0:00:00.000 0:04:08.364 437698560 14099

CHAPTERS:

Number Time In Length Avg Video Rate Max 1-Sec Rate Max 1-Sec Time Max 5-Sec Rate Max 5-Sec Time Max 10Sec Rate Max 10Sec Time Avg Frame Size Max Frame Size Max Frame Time
------ ------- ------ -------------- -------------- -------------- -------------- -------------- -------------- -------------- -------------- -------------- --------------
1 0:00:00.000 0:04:08.364 13116 kbps 16833 kbps 00:00:01.067 14564 kbps 00:00:08.091 13947 kbps 00:00:08.091 27355 bytes 215024 bytes 00:02:17.237

STREAM DIAGNOSTICS:

File PID Type Codec Language Seconds Bitrate Bytes Packets
---- --- ---- ----- -------- -------------- -------------- ------------- -----
00020.M2TS 4113 (0x1011) 0x1B AVC 248,331 13118 407204379 2221427
00020.M2TS 4352 (0x1100) 0x81 AC3 eng (English) 248,331 224 6953856 38805[/code]
<---- END FORUMS PASTE ---->

QUICK SUMMARY:

Disc Title: FabricOfTime
Disc Size: 23219493852 bytes
Protection: AACS
BD-Java: No
Playlist: 00010.MPLS
Size: 437698560 bytes
Length: 0:04:08
Total Bitrate: 14,10 Mbps
Video: MPEG-4 AVC Video / 13116 kbps / 720p / 59,940 fps / 16:9 / High Profile 4.0
Audio: English / Dolby Digital Audio / 2.0 / 48 kHz / 224 kbps / DN -4dB

********************
PLAYLIST: 01011.MPLS
********************

<--- BEGIN FORUMS PASTE --->
[code]Total Video
Title Codec Length Movie Size Disc Size Bitrate Bitrate Main Audio Track Secondary Audio Track
----- ------ ------- -------------- -------------- ------- ------- ------------------ ---------------------
01011.MPLS AVC 0:04:08 437698560 23219493852 14,10 13,12 DD AC3 2.0 224Kbps[/code]
[code]DISC INFO:

Disc Title: FabricOfTime
Disc Size: 23219493852 bytes
Protection: AACS
BD-Java: No
Extras: Blu-ray 3D
BDInfo: 0.5.6

PLAYLIST REPORT:

Name: 01011.MPLS
Length: 0:04:08 (h:m:s)
Size: 437698560 bytes
Total Bitrate: 14,10 Mbps

VIDEO:

Codec Bitrate Description
----- ------- -----------
MPEG-4 AVC Video 13116 kbps 720p / 59,940 fps / 16:9 / High Profile 4.0

AUDIO:

Codec Language Bitrate Description
----- -------- ------- -----------
Dolby Digital Audio English 224 kbps 2.0 / 48 kHz / 224 kbps / DN -4dB

FILES:

Name Time In Length Size Total Bitrate
---- ------- ------ ---- -------------
00020.M2TS 0:00:00.000 0:04:08.364 437698560 14099

CHAPTERS:

Number Time In Length Avg Video Rate Max 1-Sec Rate Max 1-Sec Time Max 5-Sec Rate Max 5-Sec Time Max 10Sec Rate Max 10Sec Time Avg Frame Size Max Frame Size Max Frame Time
------ ------- ------ -------------- -------------- -------------- -------------- -------------- -------------- -------------- -------------- -------------- --------------
1 0:00:00.000 0:04:08.364 13116 kbps 16833 kbps 00:00:01.067 14564 kbps 00:00:08.091 13947 kbps 00:00:08.091 27355 bytes 215024 bytes 00:02:17.237

STREAM DIAGNOSTICS:

File PID Type Codec Language Seconds Bitrate Bytes Packets
---- --- ---- ----- -------- -------------- -------------- ------------- -----
00020.M2TS 4113 (0x1011) 0x1B AVC 248,331 13118 407204379 2221427
00020.M2TS 4352 (0x1100) 0x81 AC3 eng (English) 248,331 224 6953856 38805[/code]
<---- END FORUMS PASTE ---->

QUICK SUMMARY:

Disc Title: FabricOfTime
Disc Size: 23219493852 bytes
Protection: AACS
BD-Java: No
Playlist: 01011.MPLS
Size: 437698560 bytes
Length: 0:04:08
Total Bitrate: 14,10 Mbps
Video: MPEG-4 AVC Video / 13116 kbps / 720p / 59,940 fps / 16:9 / High Profile 4.0
Audio: English / Dolby Digital Audio / 2.0 / 48 kHz / 224 kbps / DN -4dB

********************
PLAYLIST: 00005.MPLS
********************

<--- BEGIN FORUMS PASTE --->
[code]Total Video
Title Codec Length Movie Size Disc Size Bitrate Bitrate Main Audio Track Secondary Audio Track
----- ------ ------- -------------- -------------- ------- ------- ------------------ ---------------------
00005.MPLS AVC 0:03:52 359202816 23219493852 12,37 11,47 DD AC3 2.0 224Kbps[/code]
[code]DISC INFO:

Disc Title: FabricOfTime
Disc Size: 23219493852 bytes
Protection: AACS
BD-Java: No
Extras: Blu-ray 3D
BDInfo: 0.5.6

PLAYLIST REPORT:

Name: 00005.MPLS
Length: 0:03:52 (h:m:s)
Size: 359202816 bytes
Total Bitrate: 12,37 Mbps

VIDEO:

Codec Bitrate Description
----- ------- -----------
MPEG-4 AVC Video 11465 kbps 720p / 59,940 fps / 16:9 / High Profile 4.0

AUDIO:

Codec Language Bitrate Description
----- -------- ------- -----------
Dolby Digital Audio English 224 kbps 2.0 / 48 kHz / 224 kbps / DN -4dB

FILES:

Name Time In Length Size Total Bitrate
---- ------- ------ ---- -------------
00010.M2TS 0:00:00.000 0:03:52.248 359202816 12373

CHAPTERS:

Number Time In Length Avg Video Rate Max 1-Sec Rate Max 1-Sec Time Max 5-Sec Rate Max 5-Sec Time Max 10Sec Rate Max 10Sec Time Avg Frame Size Max Frame Size Max Frame Time
------ ------- ------ -------------- -------------- -------------- -------------- -------------- -------------- -------------- -------------- -------------- --------------
1 0:00:00.000 0:03:52.248 11465 kbps 19550 kbps 00:00:44.260 14792 kbps 00:00:44.260 13856 kbps 00:00:44.394 23909 bytes 240282 bytes 00:00:59.426

STREAM DIAGNOSTICS:

File PID Type Codec Language Seconds Bitrate Bytes Packets
---- --- ---- ----- -------- -------------- -------------- ------------- -----
00010.M2TS 4113 (0x1011) 0x1B AVC 232,215 11467 332843947 1816036
00010.M2TS 4352 (0x1100) 0x81 AC3 eng (English) 232,215 224 6503168 36290[/code]
<---- END FORUMS PASTE ---->

QUICK SUMMARY:

Disc Title: FabricOfTime
Disc Size: 23219493852 bytes
Protection: AACS
BD-Java: No
Playlist: 00005.MPLS
Size: 359202816 bytes
Length: 0:03:52
Total Bitrate: 12,37 Mbps
Video: MPEG-4 AVC Video / 11465 kbps / 720p / 59,940 fps / 16:9 / High Profile 4.0
Audio: English / Dolby Digital Audio / 2.0 / 48 kHz / 224 kbps / DN -4dB

********************
PLAYLIST: 01006.MPLS
********************

<--- BEGIN FORUMS PASTE --->
[code]Total Video
Title Codec Length Movie Size Disc Size Bitrate Bitrate Main Audio Track Secondary Audio Track
----- ------ ------- -------------- -------------- ------- ------- ------------------ ---------------------
01006.MPLS AVC 0:03:52 359202816 23219493852 12,37 11,47 DD AC3 2.0 224Kbps[/code]
[code]DISC INFO:

Disc Title: FabricOfTime
Disc Size: 23219493852 bytes
Protection: AACS
BD-Java: No
Extras: Blu-ray 3D
BDInfo: 0.5.6

PLAYLIST REPORT:

Name: 01006.MPLS
Length: 0:03:52 (h:m:s)
Size: 359202816 bytes
Total Bitrate: 12,37 Mbps

VIDEO:

Codec Bitrate Description
----- ------- -----------
MPEG-4 AVC Video 11465 kbps 720p / 59,940 fps / 16:9 / High Profile 4.0

AUDIO:

Codec Language Bitrate Description
----- -------- ------- -----------
Dolby Digital Audio English 224 kbps 2.0 / 48 kHz / 224 kbps / DN -4dB

FILES:

Name Time In Length Size Total Bitrate
---- ------- ------ ---- -------------
00010.M2TS 0:00:00.000 0:03:52.248 359202816 12373

CHAPTERS:

Number Time In Length Avg Video Rate Max 1-Sec Rate Max 1-Sec Time Max 5-Sec Rate Max 5-Sec Time Max 10Sec Rate Max 10Sec Time Avg Frame Size Max Frame Size Max Frame Time
------ ------- ------ -------------- -------------- -------------- -------------- -------------- -------------- -------------- -------------- -------------- --------------
1 0:00:00.000 0:03:52.248 11465 kbps 19550 kbps 00:00:44.260 14792 kbps 00:00:44.260 13856 kbps 00:00:44.394 23909 bytes 240282 bytes 00:00:59.426

STREAM DIAGNOSTICS:

File PID Type Codec Language Seconds Bitrate Bytes Packets
---- --- ---- ----- -------- -------------- -------------- ------------- -----
00010.M2TS 4113 (0x1011) 0x1B AVC 232,215 11467 332843947 1816036
00010.M2TS 4352 (0x1100) 0x81 AC3 eng (English) 232,215 224 6503168 36290[/code]
<---- END FORUMS PASTE ---->

QUICK SUMMARY:

Disc Title: FabricOfTime
Disc Size: 23219493852 bytes
Protection: AACS
BD-Java: No
Playlist: 01006.MPLS
Size: 359202816 bytes
Length: 0:03:52
Total Bitrate: 12,37 Mbps
Video: MPEG-4 AVC Video / 11465 kbps / 720p / 59,940 fps / 16:9 / High Profile 4.0
Audio: English / Dolby Digital Audio / 2.0 / 48 kHz / 224 kbps / DN -4dB

********************
PLAYLIST: 00009.MPLS
********************

<--- BEGIN FORUMS PASTE --->
[code]Total Video
Title Codec Length Movie Size Disc Size Bitrate Bitrate Main Audio Track Secondary Audio Track
----- ------ ------- -------------- -------------- ------- ------- ------------------ ---------------------
00009.MPLS AVC 0:01:42 178784256 23219493852 13,90 12,92 DD AC3 2.0 224Kbps[/code]
[code]DISC INFO:

Disc Title: FabricOfTime
Disc Size: 23219493852 bytes
Protection: AACS
BD-Java: No
Extras: Blu-ray 3D
BDInfo: 0.5.6

PLAYLIST REPORT:

Name: 00009.MPLS
Length: 0:01:42 (h:m:s)
Size: 178784256 bytes
Total Bitrate: 13,90 Mbps

VIDEO:

Codec Bitrate Description
----- ------- -----------
MPEG-4 AVC Video 12915 kbps 720p / 59,940 fps / 16:9 / High Profile 4.0

AUDIO:

Codec Language Bitrate Description
----- -------- ------- -----------
Dolby Digital Audio English 224 kbps 2.0 / 48 kHz / 224 kbps / DN -4dB

FILES:

Name Time In Length Size Total Bitrate
---- ------- ------ ---- -------------
00018.M2TS 0:00:00.000 0:01:42.919 178784256 13897

CHAPTERS:

Number Time In Length Avg Video Rate Max 1-Sec Rate Max 1-Sec Time Max 5-Sec Rate Max 5-Sec Time Max 10Sec Rate Max 10Sec Time Avg Frame Size Max Frame Size Max Frame Time
------ ------- ------ -------------- -------------- -------------- -------------- -------------- -------------- -------------- -------------- -------------- --------------
1 0:00:00.000 0:01:42.919 12915 kbps 15698 kbps 00:00:11.895 14303 kbps 00:00:07.891 13912 kbps 00:00:07.257 26938 bytes 165381 bytes 00:01:07.534

STREAM DIAGNOSTICS:

File PID Type Codec Language Seconds Bitrate Bytes Packets
---- --- ---- ----- -------- -------------- -------------- ------------- -----
00018.M2TS 4113 (0x1011) 0x1B AVC 102,886 12920 166155801 906565
00018.M2TS 4352 (0x1100) 0x81 AC3 eng (English) 102,886 224 2881536 16080[/code]
<---- END FORUMS PASTE ---->

QUICK SUMMARY:

Disc Title: FabricOfTime
Disc Size: 23219493852 bytes
Protection: AACS
BD-Java: No
Playlist: 00009.MPLS
Size: 178784256 bytes
Length: 0:01:42
Total Bitrate: 13,90 Mbps
Video: MPEG-4 AVC Video / 12915 kbps / 720p / 59,940 fps / 16:9 / High Profile 4.0
Audio: English / Dolby Digital Audio / 2.0 / 48 kHz / 224 kbps / DN -4dB

********************
PLAYLIST: 01010.MPLS
********************

<--- BEGIN FORUMS PASTE --->
[code]Total Video
Title Codec Length Movie Size Disc Size Bitrate Bitrate Main Audio Track Secondary Audio Track
----- ------ ------- -------------- -------------- ------- ------- ------------------ ---------------------
01010.MPLS AVC 0:01:42 178784256 23219493852 13,90 12,92 DD AC3 2.0 224Kbps[/code]
[code]DISC INFO:

Disc Title: FabricOfTime
Disc Size: 23219493852 bytes
Protection: AACS
BD-Java: No
Extras: Blu-ray 3D
BDInfo: 0.5.6

PLAYLIST REPORT:

Name: 01010.MPLS
Length: 0:01:42 (h:m:s)
Size: 178784256 bytes
Total Bitrate: 13,90 Mbps

VIDEO:

Codec Bitrate Description
----- ------- -----------
MPEG-4 AVC Video 12915 kbps 720p / 59,940 fps / 16:9 / High Profile 4.0

AUDIO:

Codec Language Bitrate Description
----- -------- ------- -----------
Dolby Digital Audio English 224 kbps 2.0 / 48 kHz / 224 kbps / DN -4dB

FILES:

Name Time In Length Size Total Bitrate
---- ------- ------ ---- -------------
00018.M2TS 0:00:00.000 0:01:42.919 178784256 13897

CHAPTERS:

Number Time In Length Avg Video Rate Max 1-Sec Rate Max 1-Sec Time Max 5-Sec Rate Max 5-Sec Time Max 10Sec Rate Max 10Sec Time Avg Frame Size Max Frame Size Max Frame Time
------ ------- ------ -------------- -------------- -------------- -------------- -------------- -------------- -------------- -------------- -------------- --------------
1 0:00:00.000 0:01:42.919 12915 kbps 15698 kbps 00:00:11.895 14303 kbps 00:00:07.891 13912 kbps 00:00:07.257 26938 bytes 165381 bytes 00:01:07.534

STREAM DIAGNOSTICS:

File PID Type Codec Language Seconds Bitrate Bytes Packets
---- --- ---- ----- -------- -------------- -------------- ------------- -----
00018.M2TS 4113 (0x1011) 0x1B AVC 102,886 12920 166155801 906565
00018.M2TS 4352 (0x1100) 0x81 AC3 eng (English) 102,886 224 2881536 16080[/code]
<---- END FORUMS PASTE ---->

QUICK SUMMARY:

Disc Title: FabricOfTime
Disc Size: 23219493852 bytes
Protection: AACS
BD-Java: No
Playlist: 01010.MPLS
Size: 178784256 bytes
Length: 0:01:42
Total Bitrate: 13,90 Mbps
Video: MPEG-4 AVC Video / 12915 kbps / 720p / 59,940 fps / 16:9 / High Profile 4.0
Audio: English / Dolby Digital Audio / 2.0 / 48 kHz / 224 kbps / DN -4dB

********************
PLAYLIST: 00000.MPLS
********************

<--- BEGIN FORUMS PASTE --->
[code]Total Video
Title Codec Length Movie Size Disc Size Bitrate Bitrate Main Audio Track Secondary Audio Track
----- ------ ------- -------------- -------------- ------- ------- ------------------ ---------------------
00000.MPLS AVC 0:00:23 27297792 23219493852 9,37 8,58 DD AC3 2.0 192Kbps[/code]
[code]DISC INFO:

Disc Title: FabricOfTime
Disc Size: 23219493852 bytes
Protection: AACS
BD-Java: No
Extras: Blu-ray 3D
BDInfo: 0.5.6

PLAYLIST REPORT:

Name: 00000.MPLS
Length: 0:00:23 (h:m:s)
Size: 27297792 bytes
Total Bitrate: 9,37 Mbps

VIDEO:

Codec Bitrate Description
----- ------- -----------
MPEG-4 AVC Video 8584 kbps 720p / 59,940 fps / 16:9 / High Profile 4.1

AUDIO:

Codec Language Bitrate Description
----- -------- ------- -----------
Dolby Digital Audio Undetermined 192 kbps 2.0 / 48 kHz / 192 kbps / DN -4dB

FILES:

Name Time In Length Size Total Bitrate
---- ------- ------ ---- -------------
00000.M2TS 0:00:00.000 0:00:23.306 27297792 9370

CHAPTERS:

Number Time In Length Avg Video Rate Max 1-Sec Rate Max 1-Sec Time Max 5-Sec Rate Max 5-Sec Time Max 10Sec Rate Max 10Sec Time Avg Frame Size Max Frame Size Max Frame Time
------ ------- ------ -------------- -------------- -------------- -------------- -------------- -------------- -------------- -------------- -------------- --------------
1 0:00:00.000 0:00:23.306 8584 kbps 18316 kbps 00:00:10.043 14976 kbps 00:00:07.557 13840 kbps 00:00:02.419 17900 bytes 229071 bytes 00:00:05.238

STREAM DIAGNOSTICS:

File PID Type Codec Language Seconds Bitrate Bytes Packets
---- --- ---- ----- -------- -------------- -------------- ------------- -----
00000.M2TS 4113 (0x1011) 0x1B AVC 23,273 8596 25006947 136672
00000.M2TS 4352 (0x1100) 0x81 AC3 und (Undetermined) 23,273 192 559104 3640[/code]
<---- END FORUMS PASTE ---->

QUICK SUMMARY:

Disc Title: FabricOfTime
Disc Size: 23219493852 bytes
Protection: AACS
BD-Java: No
Playlist: 00000.MPLS
Size: 27297792 bytes
Length: 0:00:23
Total Bitrate: 9,37 Mbps
Video: MPEG-4 AVC Video / 8584 kbps / 720p / 59,940 fps / 16:9 / High Profile 4.1
Audio: Undetermined / Dolby Digital Audio / 2.0 / 48 kHz / 192 kbps / DN -4dB

********************
PLAYLIST: 01001.MPLS
********************

<--- BEGIN FORUMS PASTE --->
[code]Total Video
Title Codec Length Movie Size Disc Size Bitrate Bitrate Main Audio Track Secondary Audio Track
----- ------ ------- -------------- -------------- ------- ------- ------------------ ---------------------
01001.MPLS AVC 0:00:23 27297792 23219493852 9,37 8,58 DD AC3 2.0 192Kbps[/code]
[code]DISC INFO:

Disc Title: FabricOfTime
Disc Size: 23219493852 bytes
Protection: AACS
BD-Java: No
Extras: Blu-ray 3D
BDInfo: 0.5.6

PLAYLIST REPORT:

Name: 01001.MPLS
Length: 0:00:23 (h:m:s)
Size: 27297792 bytes
Total Bitrate: 9,37 Mbps

VIDEO:

Codec Bitrate Description
----- ------- -----------
MPEG-4 AVC Video 8584 kbps 720p / 59,940 fps / 16:9 / High Profile 4.1

AUDIO:

Codec Language Bitrate Description
----- -------- ------- -----------
Dolby Digital Audio Undetermined 192 kbps 2.0 / 48 kHz / 192 kbps / DN -4dB

FILES:

Name Time In Length Size Total Bitrate
---- ------- ------ ---- -------------
00000.M2TS 0:00:00.000 0:00:23.306 27297792 9370

CHAPTERS:

Number Time In Length Avg Video Rate Max 1-Sec Rate Max 1-Sec Time Max 5-Sec Rate Max 5-Sec Time Max 10Sec Rate Max 10Sec Time Avg Frame Size Max Frame Size Max Frame Time
------ ------- ------ -------------- -------------- -------------- -------------- -------------- -------------- -------------- -------------- -------------- --------------
1 0:00:00.000 0:00:23.306 8584 kbps 18316 kbps 00:00:10.043 14976 kbps 00:00:07.557 13840 kbps 00:00:02.419 17900 bytes 229071 bytes 00:00:05.238

STREAM DIAGNOSTICS:

File PID Type Codec Language Seconds Bitrate Bytes Packets
---- --- ---- ----- -------- -------------- -------------- ------------- -----
00000.M2TS 4113 (0x1011) 0x1B AVC 23,273 8596 25006947 136672
00000.M2TS 4352 (0x1100) 0x81 AC3 und (Undetermined) 23,273 192 559104 3640[/code]
<---- END FORUMS PASTE ---->

QUICK SUMMARY:

Disc Title: FabricOfTime
Disc Size: 23219493852 bytes
Protection: AACS
BD-Java: No
Playlist: 01001.MPLS
Size: 27297792 bytes
Length: 0:00:23
Total Bitrate: 9,37 Mbps
Video: MPEG-4 AVC Video / 8584 kbps / 720p / 59,940 fps / 16:9 / High Profile 4.1
Audio: Undetermined / Dolby Digital Audio / 2.0 / 48 kHz / 192 kbps / DN -4dB


 ·  , , FAQ-
:  [ 04--2011 19:08 ]

  

.torrent

.torrent 108 KB


: 21.63 GB
(hash) : 483e615faaeee24063de42792247075e9c291e3d
:
··
...

Fabric of Time . !

!