Скачать через торрент Копье и маски Lance N Masques бесплатно Аниме Все серии на русском torrent

Если у вас наблюдаются проблемы со скриншотами, переходом по ссылками, скачиванием торрентов - проблемы в блокировщике рекламы AdBlock. #хорошегоДня!


Статистика раздачи
Размер:  3.56 GB   |    Зарегистрирован:  1 год 8 месяцев   |    .torrent скачан:  16 раз   |   
Раздают:  1  
   
Загрузка...
 
Автор Сообщение

Galfimbul

avatar Galfimbul


Копье и маски / Lance N' Masques
Страна: Япония
Год выпуска: 2015 г.
Тип: TV
Жанр: Приключения, фэнтези, экшн
Продолжительность: 12 эп. по 25 мин
Русские субтитры: Ani-Panic
Переводчик: Veles
Режиссер: Исигуро Кёхэй

Студия:

Описание: В наше современное и технологически развитое время настоящих рыцарей уже не осталось. Все они вышли из моды и канули в небытие. Йотаро Ханабуса — один из немногих оставшихся верным старым традициям рыцарь, последний из своего ордена, стремящийся вернуть старые традиции. Сюжет данного аниме описывает приключения юного рыцаря, а также его подруги — Макио Кидоин, девушки из знатной семьи, ученицы рыцаря Элис Кливеленд, а также верной наставницы Йотаро — Йорико Судо.

Качество: HDTVRip | Равка: Leopard-Raws Формат: mp4 | Тип Видео: без хардсаба
Видео кодек: AVC
Видео: AVC, 8 bits, 1280x720, 1667 kbps, 23.976 fps, (16:9)
JP - AAC, 192 kbps, 48.0 KHz, 2 ch Язык Японский
01.He`s a Real Hero
02. Are You Prepared?
03. I Am Here Now, My Lady
04. Daddy
05. From Now On, We`re Family
06. Just This Once!
07. Be Mine
08. Give Me Courage
09. Charge
10. Be Who You Want to Be
Общее
Полное имя : D:\[Leopard-Raws]\[Leopard-Raws] Lance N' Masques\[Leopard-Raws] Lance N' Masques - 01 RAW (TBS 1280x720 x264 AAC).mp4
Формат : MPEG-4
Профиль формата : Base Media
Идентификатор кодека : isom
Размер файла : 326 Мбайт
Продолжительность : 24 м.
Режим общего битрейта : Переменный
Общий поток : 1863 Кбит/сек
Дата кодирования : UTC 2015-10-01 19:06:31
Дата пометки : UTC 2015-10-01 19:06:31

Видео
Идентификатор : 1
Формат : AVC
Формат/Информация : Advanced Video Codec
Профиль формата : High@L4.1
Параметр CABAC формата : Да
Параметр ReFrames формата : 4 кадра
Идентификатор кодека : avc1
Идентификатор кодека/Информация : Advanced Video Coding
Продолжительность : 24 м.
Битрейт : 1667 Кбит/сек
Максимальный битрейт : 18,3 Мбит/сек
Ширина : 1280 пикселей
Высота : 720 пикселей
Соотношение сторон : 16:9
Режим частоты кадров : Постоянный
Частота кадров : 23,976 кадра/сек
Цветовое пространство : YUV
Субдискретизация насыщенности : 4:2:0
Битовая глубина : 8 бит
Тип развёртки : Прогрессивная
Бит/(Пиксели*Кадры) : 0.075
Размер потока : 292 Мбайт (89%)
Заголовок : 264:fps=23.976@GPAC0.5.1-DEV-rev4929
Библиотека кодирования : x264 core 129 r2245+729M 1a52e03
Настройки программы : cabac=1 / ref=4 / deblock=1:1:-1 / analyse=0x3:0x113 / me=umh / subme=9 / psy=1 / fade_compensate=0.00 / psy_rd=1.00:0.00 / mixed_ref=1 / me_range=24 / chroma_me=1 / trellis=2 / 8x8dct=1 / cqm=0 / deadzone=21,11 / fast_pskip=1 / chroma_qp_offset=-2 / threads=8 / lookahead_threads=1 / sliced_threads=0 / nr=0 / decimate=1 / interlaced=0 / bluray_compat=0 / constrained_intra=0 / fgo=0 / bframes=9 / b_pyramid=2 / b_adapt=2 / b_bias=0 / direct=1 / weightb=1 / open_gop=0 / weightp=2 / keyint=240 / keyint_min=24 / scenecut=40 / intra_refresh=0 / rc=crf / mbtree=0 / crf=18.5 / qcomp=0.72 / qpmin=0 / qpmax=69 / qpstep=4 / ip_ratio=1.40 / pb_ratio=1.30 / aq=1:0.85
Дата кодирования : UTC 2015-10-01 19:06:31
Дата пометки : UTC 2015-10-01 19:06:34
Основные цвета : BT.709
Характеристики трансфера : BT.709
Коэффициенты матрицы : BT.709

Аудио
Идентификатор : 2
Формат : AAC
Формат/Информация : Advanced Audio Codec
Профиль формата : LC
Идентификатор кодека : 40
Продолжительность : 24 м.
Вид битрейта : Переменный
Битрейт : 192 Кбит/сек
Максимальный битрейт : 236 Кбит/сек
Каналы : 2 канала
Расположение каналов : Front: L R
Частота : 48,0 КГц
Метод сжатия : С потерями
Размер потока : 33,6 Мбайт (10%)
Язык : Japanese
Дата кодирования : UTC 2015-10-01 17:33:20
Дата пометки : UTC 2015-10-01 19:06:34


Обновите торент файл, добавлена 8-10я серии

Трекер:  [ 02-Янв-2016 16:30 ]

  

Скачать .torrent

Размер .torrent файла 20 KB


Размер: 3.56 GB
Хэш (hash) релиза: 0c81d11106c28b36a73aabf164f4b883dbb79192
Подписка на обновления:

Торренты, похожие на Копье и маски Lance N Masques скачать торрент

Форум Название Автор Размер S L Добавлен
Аниме | HD Rips ·· Копьё и Маски / Lance N' Masques (Исигуро Кёхэй) [TV] [12 из 12] [Без хардсаба] [JAP+SUB] [2015 г., приключения, фэнтези, BDRip] [1080p] Galfimbul 2387445810222.23 GB 0 0 1467082040

05:47

28-Июн-16

Аниме | HD Rips ·· Копье и маски / Lance N' Masques (Исигуро Кёхэй) [TV] [12 из 12] [Без хардсаба] [JAP+SUB] [2015 г., приключения, фэнтези, экшн HDTVRip] [720p] Galfimbul 45785510104.26 GB 0 0 1454806589

03:56

7-Фев-16

Аниме | HD Rips ·· Копье и маски / Lance N' Masques (Исигуро Кёхэй) [TV] [2 из 12] [Без хардсаба] [JAP+SUB] [2015 г., приключения, фэнтези, экшн BDRip] [720p] Galfimbul 11426764951.06 GB 0 0 1451238774

20:52

27-Дек-15

Аниме | HD Rips ·· Копье и маски / Lance N' Masques (Исигуро Кёхэй) [TV] [2 из 12] [Без хардсаба] [JAP+SUB] [2015 г., приключения, фэнтези, экшн BDRip] [720p] Galfimbul 11426764951.06 GB 0 0 1451235273

19:54

27-Дек-15

Аниме | HD Rips ·· Копье и маски / Lance N' Masques (Ёсимура Ай) [TV] [7 из 12] [Без хардсаба] [JAP+SUB] [2015 г., приключения, фэнтези, экшн HDTVRip] [720p] Galfimbul 25490740182.37 GB 0 0 1448883129

14:32

30-Ноя-15

Аниме | HD Rips ·· Копье и маски / Lance N' Masques (Ёсимура Ай) [TV] [Без хардсаба] [5 из 12] [JAP+SUB] [2015 г., приключения, фэнтези, экшн HDTVRip] [720p] Galfimbul 18226958861.7 GB 0 0 1448371779

16:29

24-Ноя-15

Аниме | HD Rips ·· Копье и маски / Lance N' Masques (Ёсимура Ай) [TV] [Без хардсаба] [4 из 12] [JAP+SUB] [2015 г., приключения, фэнтези, экшн HDTVRip] [720p] Galfimbul 14620089321.36 GB 0 0 1446543130

12:32

3-Ноя-15

Аниме | HD Rips ·· Копье и маски / Lance N' Masques (Ёсимура Ай) [TV] [Без хардсаба] [4 из 12] [JAP+SUB] [2015 г., приключения, фэнтези, экшн HDTVRip] [720p] Galfimbul 14618444571.36 GB 0 0 1446541089

11:58

3-Ноя-15

Аниме | HD Rips ·· Копье и маски / Lance N' Masques (Ёсимура Ай) [TV] [Без хардсаба] [1 из 12] [JAP+SUB] [2015 г., приключения, фэнтези, экшн HDTVRip] [720p] Galfimbul 342366057327 MB 0 0 1445202832

00:13

19-Окт-15

Еще никто не оставлял запись к записи скачать торрент Копье и маски Lance N Masques . Будь первым!

!Обратная связь