Скачать через торрент музыку Uma2RmaH бесплатно без регистрации torrent

Если у вас наблюдаются проблемы со скриншотами, переходом по ссылками, скачиванием торрентов - проблемы в блокировщике рекламы AdBlock. #хорошегоДня!


Статистика раздачи
Размер:  489 MB   |    Зарегистрирован:  6 лет 3 месяца   |    .torrent скачан:  118 раз   |   
Раздают:  1  
   
Загрузка...
 
Автор Сообщение

L


Uma2rmaH / В Этом Городе Все Сумасшедшие

Жанр: Pop-Rock
Страна-производитель диска: Россия
Год издания диска: 2011
Издатель (лейбл): Velvet Music
Номер по каталогу: MT 000410-581-1
Страна: Россия ( Москва )
Аудио кодек: FLAC (*.flac)
Тип рипа: tracks+.cue
Битрейт аудио: lossless
Продолжительность: 70:35
Источник (релизер): Диск из личной коллекции
Наличие сканов в содержимом раздачи: да
Треклист:

01. Не поминайте лихом (04:22)
02. В городе дождь (03:30)
03. Русский колорит (03:00)
04. Мама (04:02)
05. Лузер (02:45)
06. Ты вернёшься (04:46)
07. После седьмой (03:20)
08. В этом городе все сумасшедшие (03:53)
09. В твоих глазах (03:42)
10. В пролесье (05:15)
11. Оля из сети (04:18)
12. Разметало (03:48)
13. Не жди (04:45)
14. Тебе понравится (03:15)
15. Я так и не узнал (03:00)
16. А знаешь, всё ещё будет (03:30)
17. Свеча (04:00)
18. Объясни мне (05:23)
 
Exact Audio Copy V0.99 prebeta 5 from 4. May 2009

EAC extraction logfile from 29. April 2011, 20:43

Uma2RmaH / В Этом Городе Все Сумасшедшие

Used drive : HL-DT-STDVDRAM GH22NS50 Adapter: 3 ID: 1

Read mode : SecureUtilize accurate stream : YesDefeat audio cache : YesMake use of C2 pointers : No

Read offset correction : 667Overread into Lead-In and Lead-Out : NoFill up missing offset samples with silence : YesDelete leading and trailing silent blocks : NoNull samples used in CRC calculations : YesUsed interface : Installed external ASPI interfaceGap handling : Appended to previous track

Used output format : User Defined EncoderSelected bitrate : 768 kBit/sQuality : HighAdd ID3 tag : NoCommand line compressor : C:\Program Files\Flac 1.2.1\bin\flac.exeAdditional command line options : -8 -V -T "ARTIST=%a" -T "TITLE=%t" -T "ALBUM=%g" -T "DATE=%y" -T "TRACKNUMBER=%n" -T "GENRE=%m" -T "COMMENT=EAC FLAC -8" %s

TOC of the extracted CD

Track | Start | Length | Start sector | End sector --------------------------------------------------------- 1 | 0:00.00 | 4:21.74 | 0 | 19648 2 | 4:21.74 | 3:30.68 | 19649 | 35466 3 | 7:52.67 | 2:59.74 | 35467 | 48965 4 | 10:52.66 | 4:01.74 | 48966 | 67114 5 | 14:54.65 | 2:44.74 | 67115 | 79488 6 | 17:39.64 | 4:45.74 | 79489 | 100937 7 | 22:25.63 | 3:19.74 | 100938 | 115936 8 | 25:45.62 | 3:52.74 | 115937 | 133410 9 | 29:38.61 | 3:41.74 | 133411 | 150059 10 | 33:20.60 | 5:14.74 | 150060 | 173683 11 | 38:35.59 | 4:17.74 | 173684 | 193032 12 | 42:53.58 | 3:47.74 | 193033 | 210131 13 | 46:41.57 | 3:14.74 | 210132 | 224755 14 | 49:56.56 | 4:44.74 | 224756 | 246129 15 | 54:41.55 | 2:59.74 | 246130 | 259628 16 | 57:41.54 | 3:30.00 | 259629 | 275378 17 | 61:11.54 | 3:59.74 | 275379 | 293377 18 | 65:11.53 | 5:23.00 | 293378 | 317602

Track 1

Filename F:\UMA2RMAH\sound\Lossless\2011 - В Этом Городе Все Сумасшедшие\01 - Не Поминайте Лихом .wav

Pre-gap length 0:00:02.00

Peak level 100.0 % Track quality 99.9 % Test CRC 2FBE616A Copy CRC 2FBE616A Copy OK

Track 2

Filename F:\UMA2RMAH\sound\Lossless\2011 - В Этом Городе Все Сумасшедшие\02 - В Городе Дождь .wav

Peak level 100.0 % Track quality 100.0 % Test CRC 970BC0B3 Copy CRC 970BC0B3 Copy OK

Track 3

Filename F:\UMA2RMAH\sound\Lossless\2011 - В Этом Городе Все Сумасшедшие\03 - Русский Колорит .wav

Peak level 100.0 % Track quality 99.9 % Test CRC A14F7E0B Copy CRC A14F7E0B Copy OK

Track 4

Filename F:\UMA2RMAH\sound\Lossless\2011 - В Этом Городе Все Сумасшедшие\04 - Мама .wav

Peak level 100.0 % Track quality 100.0 % Test CRC 4E299E4B Copy CRC 4E299E4B Copy OK

Track 5

Filename F:\UMA2RMAH\sound\Lossless\2011 - В Этом Городе Все Сумасшедшие\05 - Лузер .wav

Peak level 100.0 % Track quality 100.0 % Test CRC C3E88B90 Copy CRC C3E88B90 Copy OK

Track 6

Filename F:\UMA2RMAH\sound\Lossless\2011 - В Этом Городе Все Сумасшедшие\06 - Ты Вернёшься .wav

Peak level 100.0 % Track quality 100.0 % Test CRC E98C0F2F Copy CRC E98C0F2F Copy OK

Track 7

Filename F:\UMA2RMAH\sound\Lossless\2011 - В Этом Городе Все Сумасшедшие\07 - После Седьмой .wav

Peak level 100.0 % Track quality 100.0 % Test CRC A1ABF078 Copy CRC A1ABF078 Copy OK

Track 8

Filename F:\UMA2RMAH\sound\Lossless\2011 - В Этом Городе Все Сумасшедшие\08 - В Этом Городе Все Сумасшедшие .wav

Peak level 100.0 % Track quality 100.0 % Test CRC A428D60C Copy CRC A428D60C Copy OK

Track 9

Filename F:\UMA2RMAH\sound\Lossless\2011 - В Этом Городе Все Сумасшедшие\09 - В Твоих Глазах .wav

Peak level 100.0 % Track quality 100.0 % Test CRC 6491EC0B Copy CRC 6491EC0B Copy OK

Track 10

Filename F:\UMA2RMAH\sound\Lossless\2011 - В Этом Городе Все Сумасшедшие\10 - В Пролесье .wav

Peak level 100.0 % Track quality 100.0 % Test CRC 45A2BE11 Copy CRC 45A2BE11 Copy OK

Track 11

Filename F:\UMA2RMAH\sound\Lossless\2011 - В Этом Городе Все Сумасшедшие\11 - Оля Из Сети .wav

Peak level 100.0 % Track quality 100.0 % Test CRC 7D06476E Copy CRC 7D06476E Copy OK

Track 12

Filename F:\UMA2RMAH\sound\Lossless\2011 - В Этом Городе Все Сумасшедшие\12 - Разметало .wav

Peak level 100.0 % Track quality 100.0 % Test CRC 0DBA0B73 Copy CRC 0DBA0B73 Copy OK

Track 13

Filename F:\UMA2RMAH\sound\Lossless\2011 - В Этом Городе Все Сумасшедшие\13 - Не Жди .wav

Peak level 100.0 % Track quality 100.0 % Test CRC 2D50DEB6 Copy CRC 2D50DEB6 Copy OK

Track 14

Filename F:\UMA2RMAH\sound\Lossless\2011 - В Этом Городе Все Сумасшедшие\14 - Тебе Понравится .wav

Peak level 100.0 % Track quality 100.0 % Test CRC 5AD12851 Copy CRC 5AD12851 Copy OK

Track 15

Filename F:\UMA2RMAH\sound\Lossless\2011 - В Этом Городе Все Сумасшедшие\15 - Я Так И Не Узнал .wav

Peak level 100.0 % Track quality 99.9 % Test CRC 0BDB71DE Copy CRC 0BDB71DE Copy OK

Track 16

Filename F:\UMA2RMAH\sound\Lossless\2011 - В Этом Городе Все Сумасшедшие\16 - А Знаешь, Всё Ещё Будет .wav

Peak level 100.0 % Track quality 100.0 % Test CRC 6EEF51E3 Copy CRC 6EEF51E3 Copy OK

Track 17

Filename F:\UMA2RMAH\sound\Lossless\2011 - В Этом Городе Все Сумасшедшие\17 - Свеча .wav

Peak level 100.0 % Track quality 100.0 % Test CRC 65412BC2 Copy CRC 65412BC2 Copy OK

Track 18

Filename F:\UMA2RMAH\sound\Lossless\2011 - В Этом Городе Все Сумасшедшие\18 - Обьясни Мне ( feat. После 11 ) .wav

Peak level 100.0 % Track quality 100.0 % Test CRC 51A880B5 Copy CRC 51A880B5 Copy OK

No errors occurred

End of status report
 
REM GENRE "Pop - Rock"REM DATE 2011REM DISCID 0B108A12REM COMMENT "ExactAudioCopy v0.99pb5"PERFORMER "Uma2RmaH"TITLE "В Этом Городе Все Сумасшедшие"FILE "01 - Не Поминайте Лихом .wav" WAVE TRACK 01 AUDIO TITLE "Не Поминайте Лихом" PERFORMER "Uma2RmaH" FLAGS DCP INDEX 01 00:00:00FILE "02 - В Городе Дождь .wav" WAVE TRACK 02 AUDIO TITLE "В Городе Дождь" PERFORMER "Uma2RmaH" FLAGS DCP INDEX 01 00:00:00FILE "03 - Русский Колорит .wav" WAVE TRACK 03 AUDIO TITLE "Русский Колорит" PERFORMER "Uma2RmaH" FLAGS DCP INDEX 01 00:00:00FILE "04 - Мама .wav" WAVE TRACK 04 AUDIO TITLE "Мама" PERFORMER "Uma2RmaH" FLAGS DCP INDEX 01 00:00:00FILE "05 - Лузер .wav" WAVE TRACK 05 AUDIO TITLE "Лузер" PERFORMER "Uma2RmaH" FLAGS DCP INDEX 01 00:00:00FILE "06 - Ты Вернёшься .wav" WAVE TRACK 06 AUDIO TITLE "Ты Вернёшься" PERFORMER "Uma2RmaH" FLAGS DCP INDEX 01 00:00:00FILE "07 - После Седьмой .wav" WAVE TRACK 07 AUDIO TITLE "После Седьмой" PERFORMER "Uma2RmaH" FLAGS DCP INDEX 01 00:00:00FILE "08 - В Этом Городе Все Сумасшедшие .wav" WAVE TRACK 08 AUDIO TITLE "В Этом Городе Все Сумасшедшие" PERFORMER "Uma2RmaH" FLAGS DCP INDEX 01 00:00:00FILE "09 - В Твоих Глазах .wav" WAVE TRACK 09 AUDIO TITLE "В Твоих Глазах" PERFORMER "Uma2RmaH" FLAGS DCP INDEX 01 00:00:00FILE "10 - В Пролесье .wav" WAVE TRACK 10 AUDIO TITLE "В Пролесье" PERFORMER "Uma2RmaH" FLAGS DCP INDEX 01 00:00:00FILE "11 - Оля Из Сети .wav" WAVE TRACK 11 AUDIO TITLE "Оля Из Сети" PERFORMER "Uma2RmaH" FLAGS DCP INDEX 01 00:00:00FILE "12 - Разметало .wav" WAVE TRACK 12 AUDIO TITLE "Разметало" PERFORMER "Uma2RmaH" FLAGS DCP INDEX 01 00:00:00FILE "13 - Не Жди .wav" WAVE TRACK 13 AUDIO TITLE "Не Жди" PERFORMER "Uma2RmaH" FLAGS DCP INDEX 01 00:00:00FILE "14 - Тебе Понравится .wav" WAVE TRACK 14 AUDIO TITLE "Тебе Понравится" PERFORMER "Uma2RmaH" FLAGS DCP INDEX 01 00:00:00FILE "15 - Я Так И Не Узнал .wav" WAVE TRACK 15 AUDIO TITLE "Я Так И Не Узнал" PERFORMER "Uma2RmaH" FLAGS DCP INDEX 01 00:00:00FILE "16 - А Знаешь, Всё Ещё Будет .wav" WAVE TRACK 16 AUDIO TITLE "А Знаешь, Всё Ещё Будет" PERFORMER "Uma2RmaH" FLAGS DCP INDEX 01 00:00:00FILE "17 - Свеча .wav" WAVE TRACK 17 AUDIO TITLE "Свеча" PERFORMER "Uma2RmaH" FLAGS DCP INDEX 01 00:00:00FILE "18 - Обьясни Мне ( feat. После 11 ) .wav" WAVE TRACK 18 AUDIO TITLE "Обьясни Мне ( feat. После 11 )" PERFORMER "Uma2RmaH" FLAGS DCP INDEX 01 00:00:00

Uma2rmaH (первое название «Уматурман») — известная российская группа, исполняющая поп-рок.

Изначально состояла из братьев Кристовских — Сергея и Владимира, которые назвали группу в честь любимой актрисы Умы Турман. В дальнейшем для концертов были наняты дополнительные музыканты: Алексей Эрнст — клавишные, Сергей Солодкин — барабаны, Алексей Кожаков и Юрий Терлетский — соло-гитара, Алексей Каплун — клавишные.

Приобрела известность после радиохитов «Прасковья», «Ума Турман», а также песни, звучавшей в финальных титрах фильма Ночной Дозор.

Группа трижды лауреат Премии Муз-ТВ и «Лучший дебют 2004» по версии Премии MTV RMA.
В этом городе все сумасшедшие» - четвертый номерной альбом группы Uma2rmaH. Для поклонников творчества группы это долгожданная пластинка – целых три года ребята не выпускали диск. Четвёртый альбом ребята называют «живым» - все треки записаны ровно в таких же аранжировках и манере, как исполняются на концертах. Очевидно, что настало время играть музыку без оглядки – для себя и для тех, кому она искренне нравится. Именно за это их и любят – за честность, наивную трогательность, верность себе, но при этом трезвую самоиронию и легкость. Вот и трек-лист получился таким – микс песен, которые заставляют задуматься и затрагивают самые потаенные уголки души и песен, пронизанных тонким юмором.

«В этом городе все сумасшедшие» - это не просто название альбома – это правильный диагноз, который поставлен в каждой песне. Это песни про немыслимые знакомства в социальных сетях, про отчаянную влюбленность, когда сердце вырвано из груди, про то, когда на душе ужасно погано и, когда небо качается, про широкую русскую душу - это хлёсткий стёб и нежные истории. Просто песни про себя.
Владимир Кристовский — вокал, гитара
Сергей Кристовский — бас-гитара, бэк-вокал
Сергей Солодкин — ударные
Юрий Терлецкий — соло-гитара
Алексей Каплун — клавишные


Трекер:  [ 30-Апр-2011 14:41 ]

  

Скачать .torrent

Размер .torrent файла 21 KB


Размер: 489 MB
Хэш (hash) релиза: 8ae0e7a27c6a2346ffc5d0201c69e1176aa575e9

Торренты, похожие на Uma2RmaH скачать торрент

Форум Название Автор Размер S L Добавлен
Отечественная Поп-музыка (mp3) ·· (Pop-Rock) Uma2rmaH (Уматурман, Uma2rман, Uma2rman) - В этом городе все сумасшедшие - 2011, MP3, 320 kbps L 169513143162 MB 0 0 1303965058

07:30

28-Апр-11

Еще никто не оставлял запись к записи скачать торрент Uma2RmaH . Будь первым!

!Обратная связь