Скачать порно через торрент [BuenosBoys.com] Luciano UnionPeer.org бесплатно онлайн HD качество

Скачать новое порно 2015, 2014 новинки через торрент UnionPeer.org

Порно торрент бесплатно ЮнионПир.орг

Если у вас наблюдаются проблемы со скриншотами, переходом по ссылками, скачиванием торрентов - проблемы в блокировщике рекламы AdBlock. #хорошегоДня!


Статистика раздачи
Размер:  219 MB   |    Зарегистрирован:  1 год 7 месяцев   |    .torrent скачан:  4 раза   |   
Раздают:  1  
   
Загрузка...
 
Автор Сообщение

Galfimbul

avatar Galfimbul


[BuenosBoys.com] Luciano (aka Tango)



Описание: There is something distinctly Brendan Fraser-like about our Luciano. He looks like the bad boy who ran away from home and found out he was a good boy. His thick crop of brown hair, strong jaw line with cleft chin, and almost Slavic facial features gives Luciano a look all his own. And if his face didn’t grab your attention, his body certainly would! Clearly he has done a lot of work on his chest, arms and abs, and his hard work has paid off in spades. He’s inked up like a ex-con, but you find yourself trying to figure him out—is he menacing, or just sweet and shy? His cock is no less impressive than his gorgeous physique, thick and long. He sure enjoyed jerking it and flopping it around like the exhibitionist he is. He seemed very much at home in the metal machine shop where we filmed his solo. He was cutting and bending big hunks of metal like he’s been doing it all his life. (Maybe he didn’t get that body at the gym after all!) Good luck trying to get to know him by asking him questions, by the way. Luciano is a slightly veiled person, he keeps a part of himself private when he shows off his body and shows off with such exhibitionism. But whoever is behind that mask remains a mystery. And we kind of like it that way.
Имя актера: Luciano (aka Tango)
Подсайт и сайт: BuenosBoys.com
Жанр: Solo, Tattoos, Muscle, Hunk, Uncut, Big Dick, Masturbation, Cumshot
Год производства: 2010-2011 г.
Страна: Argentina
Количество роликов: 2 ролика
Качество видео: SiteRip
Формат видео: WMV
Видео кодек: WMV 3
Аудио кодек: WMA 2
Video: Windows Media Video 9 640x480 29.97fps 899kbps
Audio: WMA 2 44100Hz stereo 48kbps
Video: Windows Media Video 9 640x480 29.97fps 899kbps
Audio: WMA 2 44100Hz stereo 48kbps
Format: Windows Media
File size: 119 MiB
Duration: 17mn 27s
Overall bit rate mode: Variable
Overall bit rate: 956 Kbps
Maximum Overall bit rate: 947 Kbps
Encoded date: UTC 2010-07-15 11:18:18.000
Writing application: Flip4Mac WMV Export Component for QuickTime (Mac) 2333

Video
ID: 2
Format: VC-1
Format profile: Main
Codec ID: WMV3
Codec ID/Info: Windows Media Video 9
Codec ID/Hint: WMV3
Description of the codec: Windows Media Video V9 - 640 x 480, 29.97 fps, Q=85 (VBR)
Bit rate: 899 Kbps
Width: 640 pixels
Height: 480 pixels
Display aspect ratio: 4:3
Frame rate mode: Variable
Nominal frame rate: 29.970 fps
Color space: YUV
Chroma subsampling: 4:2:0
Bit depth: 8 bits
Scan type: Progressive
Compression mode: Lossy
Language: English (US)

Audio
ID: 1
Format: WMA
Format version: Version 2
Codec ID: 161
Codec ID/Info: Windows Media Audio
Description of the codec: Windows Media Audio V9 Standard - 48 kbps, 44 kHz, 16 bit, Stereo (VBR)
Duration: 17mn 26s
Bit rate mode: Variable
Bit rate: 48.0 Kbps
Channel(s): 2 channels
Sampling rate: 44.1 KHz
Bit depth: 16 bits
Stream size: 5.99 MiB (5%)
Language: English (US)
Format: Windows Media
File size: 100 MiB
Duration: 14mn 38s
Overall bit rate mode: Variable
Overall bit rate: 956 Kbps
Maximum Overall bit rate: 947 Kbps
Encoded date: UTC 2011-05-20 08:16:01.000
Writing application: Flip4Mac WMV Export Component for QuickTime (Mac) 2333

Video
ID: 2
Format: VC-1
Format profile: Main
Codec ID: WMV3
Codec ID/Info: Windows Media Video 9
Codec ID/Hint: WMV3
Description of the codec: Windows Media Video V9 - 640 x 480, 29.97 fps, Q=85 (VBR)
Bit rate: 899 Kbps
Width: 640 pixels
Height: 480 pixels
Display aspect ratio: 4:3
Frame rate mode: Variable
Nominal frame rate: 29.970 fps
Color space: YUV
Chroma subsampling: 4:2:0
Bit depth: 8 bits
Scan type: Progressive
Compression mode: Lossy
Language: English (US)

Audio
ID: 1
Format: WMA
Format version: Version 2
Codec ID: 161
Codec ID/Info: Windows Media Audio
Description of the codec: Windows Media Audio V9 Standard - 48 kbps, 44 kHz, 16 bit, Stereo (VBR)
Duration: 14mn 38s
Bit rate mode: Variable
Bit rate: 48.0 Kbps
Channel(s): 2 channels
Sampling rate: 44.1 KHz
Bit depth: 16 bits
Stream size: 5.03 MiB (5%)
Language: English (US)


Трекер:  [ 30-Дек-2015 04:00 ]

  

Скачать .torrent

Размер .torrent файла 17 KB


Размер: 219 MB
Хэш (hash) релиза: d8b7fb4e7d199092072c96889a0ce1a23043abfc

Еще никто не оставлял запись к записи скачать торрент [BuenosBoys.com] Luciano . Будь первым!

!Обратная связь