Скачать через торрент музыку Кристина Орбакайте - 11 Альбомов бесплатно без регистрации torrent

Если у вас наблюдаются проблемы со скриншотами, переходом по ссылками, скачиванием торрентов - проблемы в блокировщике рекламы AdBlock. #хорошегоДня!


Статистика раздачи
Размер:  6.57 GB   |    Зарегистрирован:  6 лет 5 месяцев   |    .torrent скачан:  148 раз   |   
Раздают:  1  
   
Загрузка...
 
Автор Сообщение

L


Кристина Орбакайте - 11 Альбомов (13 CD)

Жанр: Pop
Год издания дисков: 1996-2011
Страна: Россия
Аудио кодек: FLAC (*.flac)
Тип рипа: image+.cue
Битрейт аудио: lossless
Продолжительность: указана у каждого альбома
Источник: собственные диски автора релиза rmb_rmb
Наличие сканов в содержимом раздачи: да, полный комплект

[url=http://ru.wikipedia.org/wiki/Орбакайте] [/url]





АЛЬБОМЫ
Лейбл: Союз
Номер по каталогу: SZCD 0541-96
Продолжительность: 51:36
Источник : собственный диск

Треклист:
01. Аленький цветочек (2:45)
02. Позови Меня (4:02)
03. Сердце (4:00)
04. Горькое Похмелье (3:46)
05. Кошка (3:45)
06. Ну почему? (4:52)
07. Немеренный Путь (2:58)
08. Дождь (3:55)
09. Круг Луны, Знак Любви (4:50)
10. Последнее Свидание (4:51)
11. Поговорим (3:20)
12. До Меня (3:40)
13. Всё, что им нужно, это только любовь (4:12)

 
Exact Audio Copy V0.99 prebeta 5 from 4. May 2009

Отчёт EAC об извлечении, выполненном 22. ноября 2010, 17:00

Кристина Орбакайте / Верность

Дисковод: ASUS DRW-24B1ST Adapter: 1 ID: 0

Режим чтения : ДостоверностьИспользование точного потока : ДаОтключение кэша аудио : ДаИспользование указателей C2 : Нет

Коррекция смещения при чтении : 6Способность читать области Lead-in и Lead-out : НетЗаполнение пропущенных сэмплов тишиной : ДаУдаление блоков с тишиной в начале и конце : НетПри вычислениях CRC использовались нулевые сэмплы : ДаИнтерфейс : Встроенный Win32-интерфейс для Win NT/2000

Выходной формат : Внутренние WAV-операцииФормат сэмплов : 44.100 Гц; 16 бит; стерео

TOC извлечённого CD

Трек | Старт | Длительность | Начальный сектор | Конечный сектор --------------------------------------------------------------------- 1 | 0:00.10 | 2:48.10 | 10 | 12619 2 | 2:48.20 | 4:04.60 | 12620 | 30979 3 | 6:53.05 | 3:49.12 | 30980 | 48166 4 | 10:42.17 | 3:48.40 | 48167 | 65306 5 | 14:30.57 | 4:54.30 | 65307 | 87386 6 | 19:25.12 | 3:00.65 | 87387 | 100951 7 | 22:26.02 | 3:58.73 | 100952 | 118874 8 | 26:25.00 | 4:52.55 | 118875 | 140829 9 | 31:17.55 | 4:55.70 | 140830 | 163024 10 | 36:13.50 | 3:23.47 | 163025 | 178296 11 | 39:37.22 | 3:44.00 | 178297 | 195096 12 | 43:21.22 | 4:00.15 | 195097 | 213111 13 | 47:21.37 | 4:15.13 | 213112 | 232249

Характеристики диапазона извлечения и сообщения об ошибках

Выбранный диапазон

Имя файла C:\Documents and Settings\Polzovatel\Мои документы\Мои рисунки\Кристина Орбакайте - Верность.wav

Пиковый уровень 94.4 % Качество диапазона 100.0 % CRC теста 4E5CD54B CRC копии 4E5CD54B Копирование... OK

Ошибок не произошло

AccurateRip: сводка

Трек 1 нет в базе данныхТрек 2 нет в базе данныхТрек 3 нет в базе данныхТрек 4 нет в базе данныхТрек 5 нет в базе данныхТрек 6 нет в базе данныхТрек 7 нет в базе данныхТрек 8 нет в базе данныхТрек 9 нет в базе данныхТрек 10 нет в базе данныхТрек 11 нет в базе данныхТрек 12 нет в базе данныхТрек 13 нет в базе данных

Ни одного трека нет в базе AccurateRip

Конец отчёта
 
REM GENRE PopREM DATE 1996REM DISCID C00C180DREM COMMENT "ExactAudioCopy v0.99pb5"PERFORMER "Кристина Орбакайте"TITLE "Верность"FILE "Кристина Орбакайте - Верность.wav" WAVE TRACK 01 AUDIO TITLE "Аленький цветочек" PERFORMER "Кристина Орбакайте" INDEX 00 00:00:00 INDEX 01 00:00:10 TRACK 02 AUDIO TITLE "Позови меня" PERFORMER "Кристина Орбакайте" INDEX 00 02:45:40 INDEX 01 02:48:20 TRACK 03 AUDIO TITLE "Горькое похмелье" PERFORMER "Кристина Орбакайте" INDEX 00 06:50:25 INDEX 01 06:53:05 TRACK 04 AUDIO TITLE "Кошка" PERFORMER "Кристина Орбакайте" INDEX 00 10:39:38 INDEX 01 10:42:17 TRACK 05 AUDIO TITLE "Ну почему" PERFORMER "Кристина Орбакайте" INDEX 00 14:28:03 INDEX 01 14:30:57 TRACK 06 AUDIO TITLE "Немеренный путь" PERFORMER "Кристина Орбакайте" INDEX 00 19:22:33 INDEX 01 19:25:12 TRACK 07 AUDIO TITLE "Дождь" PERFORMER "Кристина Орбакайте" INDEX 00 22:23:23 INDEX 01 22:26:02 TRACK 08 AUDIO TITLE "Круг луны, знак любви" PERFORMER "Кристина Орбакайте" INDEX 00 26:22:20 INDEX 01 26:25:00 TRACK 09 AUDIO TITLE "Последнее свидание" PERFORMER "Кристина Орбакайте" INDEX 00 31:15:00 INDEX 01 31:17:55 TRACK 10 AUDIO TITLE "Поговорим" PERFORMER "Кристина Орбакайте" INDEX 00 36:10:70 INDEX 01 36:13:50 TRACK 11 AUDIO TITLE "До меня" PERFORMER "Кристина Орбакайте" INDEX 00 39:34:43 INDEX 01 39:37:22 TRACK 12 AUDIO TITLE "Сердце" PERFORMER "Кристина Орбакайте" INDEX 00 43:18:43 INDEX 01 43:21:22 TRACK 13 AUDIO TITLE "Все, что им нужно, это только любовь" PERFORMER "Кристина Орбакайте" INDEX 00 47:18:58 INDEX 01 47:21:37
Лейбл: NOX Music
Номер по каталогу: NOX-023 CD
Продолжительность :43:49
* подарочное издание

Треклист:
01. Май (3:28)
02. Бесприютная душа (4:38)
03. Десять вечеров (3:52)
04. Не бей любовь о пол (3:34)
05. Обещание (4:13)
06. Никогда (3:51)
07. Не я (3:29)
08. Эпизод (4:02)
09. Сделай так (3:35)
10. Гурзуф (3:49)
11. Без тебя (remix) (5:18)
Бонус:
12. Май (клип)
Video: MPEG1 Video 352x288 (4:3) 25.00fps 1140Kbps
Audio: MPEG Audio 44100Hz stereo 224Kbp



 
Exact Audio Copy V0.99 prebeta 5 from 4. May 2009

Отчёт EAC об извлечении, выполненном 4. января 2011, 15:38

Кристина Орбакайте / Май

Дисковод: ASUS DRW-24B1ST Adapter: 1 ID: 0

Режим чтения : ДостоверностьИспользование точного потока : ДаОтключение кэша аудио : ДаИспользование указателей C2 : Нет

Коррекция смещения при чтении : 6Способность читать области Lead-in и Lead-out : НетЗаполнение пропущенных сэмплов тишиной : ДаУдаление блоков с тишиной в начале и конце : НетПри вычислениях CRC использовались нулевые сэмплы : ДаИнтерфейс : Встроенный Win32-интерфейс для Win NT/2000

Выходной формат : Внутренние WAV-операцииФормат сэмплов : 44.100 Гц; 16 бит; стерео

TOC извлечённого CD

Трек | Старт | Длительность | Начальный сектор | Конечный сектор --------------------------------------------------------------------- 1 | 0:00.00 | 3:32.66 | 0 | 15965 2 | 3:32.66 | 4:41.69 | 15966 | 37109 3 | 8:14.60 | 3:55.36 | 37110 | 54770 4 | 12:10.21 | 3:36.71 | 54771 | 71041 5 | 15:47.17 | 4:17.65 | 71042 | 90381 6 | 20:05.07 | 3:55.15 | 90382 | 108021 7 | 24:00.22 | 3:33.22 | 108022 | 124018 8 | 27:33.44 | 4:05.27 | 124019 | 142420 9 | 31:38.71 | 3:38.23 | 142421 | 158793 10 | 35:17.19 | 3:53.29 | 158794 | 176297 11 | 39:10.48 | 5:20.45 | 176298 | 200342 12 | 47:03.18 | 4:07.24 | 211743 | 230291

Характеристики диапазона извлечения и сообщения об ошибках

Выбранный диапазон

Имя файла C:\Documents and Settings\Polzovatel\Мои документы\Мои рисунки\Кристина Орбакайте - Май.wav

Пиковый уровень 100.0 % Качество диапазона 100.0 % CRC теста 7F502019 CRC копии 7F502019 Копирование... OK

Ошибок не произошло

AccurateRip: сводка

Трек 1 нет в базе данныхТрек 2 нет в базе данныхТрек 3 нет в базе данныхТрек 4 нет в базе данныхТрек 5 нет в базе данныхТрек 6 нет в базе данныхТрек 7 нет в базе данныхТрек 8 нет в базе данныхТрек 9 нет в базе данныхТрек 10 нет в базе данныхТрек 11 нет в базе данных

Ни одного трека нет в базе AccurateRip

Конец отчёта
 
REM GENRE PopREM DATE 2000REM DISCID 980BFE0CREM COMMENT "ExactAudioCopy v0.99pb5"PERFORMER "Кристина Орбакайте"TITLE "Май"FILE "Кристина Орбакайте - Май.wav" WAVE TRACK 01 AUDIO TITLE "Май" PERFORMER "Кристина Орбакайте" INDEX 01 00:00:00 TRACK 02 AUDIO TITLE "Бесприютная душа" PERFORMER "Кристина Орбакайте" INDEX 00 03:30:67 INDEX 01 03:32:66 TRACK 03 AUDIO TITLE "Десять вечеров" PERFORMER "Кристина Орбакайте" INDEX 00 08:12:61 INDEX 01 08:14:60 TRACK 04 AUDIO TITLE "Не бей любовь..." PERFORMER "Кристина Орбакайте" INDEX 00 12:08:22 INDEX 01 12:10:21 TRACK 05 AUDIO TITLE "Обещание" PERFORMER "Кристина Орбакайте" INDEX 00 15:45:18 INDEX 01 15:47:17 TRACK 06 AUDIO TITLE "никогда" PERFORMER "Кристина Орбакайте" INDEX 00 20:03:08 INDEX 01 20:05:07 TRACK 07 AUDIO TITLE "Не я" PERFORMER "Кристина Орбакайте" INDEX 00 23:58:23 INDEX 01 24:00:22 TRACK 08 AUDIO TITLE "Эпизод" PERFORMER "Кристина Орбакайте" INDEX 00 27:31:45 INDEX 01 27:33:44 TRACK 09 AUDIO TITLE "Сделай так" PERFORMER "Кристина Орбакайте" INDEX 00 31:36:72 INDEX 01 31:38:71 TRACK 10 AUDIO TITLE "Гурзуф" PERFORMER "Кристина Орбакайте" INDEX 00 35:15:20 INDEX 01 35:17:19 TRACK 11 AUDIO TITLE "Без тебя (remix)" PERFORMER "Кристина Орбакайте" INDEX 00 39:08:49 INDEX 01 39:10:48
Лейбл: NOX music
Номер по каталогу: NOX 090-2
Продолжителтьность: 51:22

Треклист:
01. Да-ди-дам (3:36)
02. Рио-де-Жанейро (4:00)
03. Сказка для двоих (3:58)
04. Мой мир (2:19)
05. All my love (3:30)
06. Робот (3:10)
07. Убирайся вон (3:49)
08. Давай , не портить вечер (4:34)
09. Аист (3:27)
10. Как жаль (4:16)
11. От зари до зари (3:39)
12. Живу в Москве (3:58)
13. Любовь, которой больше нет (дуэт с Авраамом Руссо) (3:06)
14. Любовь, которой больше нет (remix) (дуэт с Авраамом Руссо) (3:02)

 
Exact Audio Copy V0.99 prebeta 5 from 4. May 2009

Отчёт EAC об извлечении, выполненном 14. января 2011, 18:01

Кристина Орбакайте / Верь в чудеса (переиздание)

Дисковод: ASUS DRW-24B1ST Adapter: 1 ID: 0

Режим чтения : ДостоверностьИспользование точного потока : ДаОтключение кэша аудио : ДаИспользование указателей C2 : Нет

Коррекция смещения при чтении : 6Способность читать области Lead-in и Lead-out : НетЗаполнение пропущенных сэмплов тишиной : ДаУдаление блоков с тишиной в начале и конце : НетПри вычислениях CRC использовались нулевые сэмплы : ДаИнтерфейс : Встроенный Win32-интерфейс для Win NT/2000

Выходной формат : Внутренние WAV-операцииФормат сэмплов : 44.100 Гц; 16 бит; стерео

TOC извлечённого CD

Трек | Старт | Длительность | Начальный сектор | Конечный сектор --------------------------------------------------------------------- 1 | 0:00.00 | 3:40.14 | 0 | 16513 2 | 3:40.14 | 4:04.56 | 16514 | 34869 3 | 7:44.70 | 4:04.43 | 34870 | 53212 4 | 11:49.38 | 2:23.68 | 53213 | 64005 5 | 14:13.31 | 3:36.20 | 64006 | 80225 6 | 17:49.51 | 3:14.47 | 80226 | 94822 7 | 21:04.23 | 3:54.26 | 94823 | 112398 8 | 24:58.49 | 4:38.14 | 112399 | 133262 9 | 29:36.63 | 3:31.66 | 133263 | 149153 10 | 33:08.54 | 4:23.70 | 149154 | 168948 11 | 37:32.49 | 3:44.34 | 168949 | 185782 12 | 41:17.08 | 3:58.24 | 185783 | 203656 13 | 45:15.32 | 3:04.25 | 203657 | 217481 14 | 48:19.57 | 3:03.00 | 217482 | 231206

Характеристики диапазона извлечения и сообщения об ошибках

Выбранный диапазон

Имя файла C:\Documents and Settings\Polzovatel\Мои документы\Мои рисунки\Кристина Орбакайте - Верь в чудеса (переиздание).wav

Пиковый уровень 99.4 % Качество диапазона 100.0 % CRC теста 5BA72BB2 CRC копии 5BA72BB2 Копирование... OK

Ошибок не произошло

AccurateRip: сводка

Трек 1 нет в базе данныхТрек 2 нет в базе данныхТрек 3 нет в базе данныхТрек 4 нет в базе данныхТрек 5 нет в базе данныхТрек 6 нет в базе данныхТрек 7 нет в базе данныхТрек 8 нет в базе данныхТрек 9 нет в базе данныхТрек 10 нет в базе данныхТрек 11 нет в базе данныхТрек 12 нет в базе данныхТрек 13 нет в базе данныхТрек 14 нет в базе данных

Ни одного трека нет в базе AccurateRip

Конец отчёта
 
REM GENRE PopREM DATE 2003REM DISCID BB0C0A0EREM COMMENT "ExactAudioCopy v0.99pb5"PERFORMER "Кристина Орбакайте"TITLE "Верь в чудеса (переиздание)"FILE "Кристина Орбакайте - Верь в чудеса (переиздание).wav" WAVE TRACK 01 AUDIO TITLE "Да-Ди-Дам" PERFORMER "Кристина Орбакайте" INDEX 01 00:00:00 TRACK 02 AUDIO TITLE "Рио-Де-Жанейро" PERFORMER "Кристина Орбакайте" INDEX 01 03:40:14 TRACK 03 AUDIO TITLE "Сказка для двоих" PERFORMER "Кристина Орбакайте" INDEX 01 07:44:70 TRACK 04 AUDIO TITLE "Мой мир" PERFORMER "Кристина Орбакайте" INDEX 01 11:49:38 TRACK 05 AUDIO TITLE "All my love" PERFORMER "Кристина Орбакайте" INDEX 01 14:13:31 TRACK 06 AUDIO TITLE "Робот" PERFORMER "Кристина Орбакайте" INDEX 01 17:49:51 TRACK 07 AUDIO TITLE "Убирайся вон" PERFORMER "Кристина Орбакайте" INDEX 01 21:04:23 TRACK 08 AUDIO TITLE "Давай не портить вечер" PERFORMER "Кристина Орбакайте" INDEX 01 24:58:49 TRACK 09 AUDIO TITLE "Аист" PERFORMER "Кристина Орбакайте" INDEX 01 29:36:63 TRACK 10 AUDIO TITLE "Как жаль" PERFORMER "Кристина Орбакайте" INDEX 01 33:08:54 TRACK 11 AUDIO TITLE "От зари до зари" PERFORMER "Кристина Орбакайте" INDEX 01 37:32:49 TRACK 12 AUDIO TITLE "Живу в Москве" PERFORMER "Кристина Орбакайте" INDEX 01 41:17:08 TRACK 13 AUDIO TITLE "Любовь, которой больше нет" PERFORMER "Кристина Орбакайте" INDEX 01 45:15:32 TRACK 14 AUDIO TITLE "Любовь, которой больше нет (remix)" PERFORMER "Кристина Орбакайте" INDEX 01 48:19:57
Лейбл: Real records
Номер по каталогу: RR-274-CD
Продолжительность: 41:09

Треклист:
01. Перелётная птица (3:07)
02. Просто любить тебя (дуэт с А. Руссо) (3:40)
03. Свет твоей любви (3:29)
04. Губки бантиком (2:17)
05. Я к тебе не вернусь (3:22)
06. Телефонный разговор (3:29)
07. Ты буди меня (4:21)
08. Я не сказала (2:36)
09. Лето, лето (4:04)
10. Дельфин и русалка (3:12)
11. Свет твоей любви (remix) (3:20)
12. Я к тебе не вернусь (remix) (3:23)
бонус треки:
13. Перелётная птица (клип)
14. Свет твоей любви (клип)
15. Я к тебе не вернусь (клип)
ПЕРЕЛЕТНАЯ ПТИЦА
Video: MPEG1 Video 352x288 (4:3) 25.00fps 1150Kbps
Audio: MPEG Audio 44100Hz stereo 224Kbps



СВЕТ ТВОЕЙ ЛЮБВИ
Video: MPEG1 Video 352x288 (4:3) 25.00fps 1150Kbps
Audio: MPEG Audio 44100Hz stereo 224Kbps



Я К ТЕБЕ НЕ ВЕРНУСЬ
Video: MPEG1 Video 352x288 (4:3) 25.00fps 1150Kbps
Audio: MPEG Audio 44100Hz stereo 224Kbps



 
Exact Audio Copy V0.99 prebeta 5 from 4. May 2009

Отчёт EAC об извлечении, выполненном 27. декабря 2010, 20:26

Кристина Орбакайте / Перелетная птица

Дисковод: ASUS DRW-24B1ST Adapter: 1 ID: 0

Режим чтения : ДостоверностьИспользование точного потока : ДаОтключение кэша аудио : ДаИспользование указателей C2 : Нет

Коррекция смещения при чтении : 6Способность читать области Lead-in и Lead-out : НетЗаполнение пропущенных сэмплов тишиной : ДаУдаление блоков с тишиной в начале и конце : НетПри вычислениях CRC использовались нулевые сэмплы : ДаИнтерфейс : Встроенный Win32-интерфейс для Win NT/2000

Выходной формат : Внутренние WAV-операцииФормат сэмплов : 44.100 Гц; 16 бит; стерео

TOC извлечённого CD

Трек | Старт | Длительность | Начальный сектор | Конечный сектор --------------------------------------------------------------------- 1 | 0:00.00 | 3:10.00 | 0 | 14249 2 | 3:10.00 | 3:44.00 | 14250 | 31049 3 | 6:54.00 | 3:34.00 | 31050 | 47099 4 | 10:28.00 | 2:21.00 | 47100 | 57674 5 | 12:49.00 | 3:27.00 | 57675 | 73199 6 | 16:16.00 | 3:32.00 | 73200 | 89099 7 | 19:48.00 | 4:26.00 | 89100 | 109049 8 | 24:14.00 | 2:40.00 | 109050 | 121049 9 | 26:54.00 | 4:09.00 | 121050 | 139724 10 | 31:03.00 | 3:16.00 | 139725 | 154424 11 | 34:19.00 | 3:27.00 | 154425 | 169949 12 | 37:46.00 | 3:23.00 | 169950 | 185174 13 | 43:41.00 | 11:32.36 | 196575 | 248510

Характеристики диапазона извлечения и сообщения об ошибках

Выбранный диапазон

Имя файла C:\Documents and Settings\Polzovatel\Мои документы\Мои рисунки\Кристина Орбакайте - Перелетная птица.wav

Пиковый уровень 98.9 % Качество диапазона 100.0 % CRC теста DD94A1D3 CRC копии DD94A1D3 Копирование... OK

Ошибок не произошло

AccurateRip: сводка

Трек 1 нет в базе данныхТрек 2 нет в базе данныхТрек 3 нет в базе данныхТрек 4 нет в базе данныхТрек 5 нет в базе данныхТрек 6 нет в базе данныхТрек 7 нет в базе данныхТрек 8 нет в базе данныхТрек 9 нет в базе данныхТрек 10 нет в базе данныхТрек 11 нет в базе данныхТрек 12 нет в базе данных

Ни одного трека нет в базе AccurateRip

Конец отчёта
 
REM GENRE PopREM DATE 2003REM DISCID AE0CF10DREM COMMENT "ExactAudioCopy v0.99pb5"PERFORMER "Кристина Орбакайте"TITLE "Перелетная птица"FILE "Кристина Орбакайте - Перелетная птица.wav" WAVE TRACK 01 AUDIO TITLE "Перелетная птица" PERFORMER "Кристина Орбакайте" INDEX 01 00:00:00 TRACK 02 AUDIO TITLE "Просто любить тебя (дуэт с Авраамом Руссо)" PERFORMER "Кристина Орбакайте" INDEX 00 03:08:00 INDEX 01 03:10:00 TRACK 03 AUDIO TITLE "Свет твоей любви" PERFORMER "Кристина Орбакайте" INDEX 00 06:52:00 INDEX 01 06:54:00 TRACK 04 AUDIO TITLE "Губки бантиком" PERFORMER "Кристина Орбакайте" INDEX 00 10:26:00 INDEX 01 10:28:00 TRACK 05 AUDIO TITLE "Я к тебе не вернусь" PERFORMER "Кристина Орбакайте" INDEX 00 12:47:00 INDEX 01 12:49:00 TRACK 06 AUDIO TITLE "Телефонный разговор" PERFORMER "Кристина Орбакайте" INDEX 00 16:14:00 INDEX 01 16:16:00 TRACK 07 AUDIO TITLE "Ты буди меня" PERFORMER "Кристина Орбакайте" INDEX 00 19:46:00 INDEX 01 19:48:00 TRACK 08 AUDIO TITLE "Я не сказала" PERFORMER "Кристина Орбакайте" INDEX 00 24:12:00 INDEX 01 24:14:00 TRACK 09 AUDIO TITLE "Лето, лето" PERFORMER "Кристина Орбакайте" INDEX 00 26:52:00 INDEX 01 26:54:00 TRACK 10 AUDIO TITLE "Дельфин и Русалка" PERFORMER "Кристина Орбакайте" INDEX 00 31:01:00 INDEX 01 31:03:00 TRACK 11 AUDIO TITLE "Я тебе не вернусь (remix)" PERFORMER "Кристина Орбакайте" INDEX 00 34:17:00 INDEX 01 34:19:00 TRACK 12 AUDIO TITLE "Свет твоей любви (remix)" PERFORMER "Кристина Орбакайте" INDEX 00 37:44:00 INDEX 01 37:46:00
Лейбл: Мистерия звука
Номер по каталогу: MT 10679-519-2/0
Продолжительность: 46:06
Источник: собственный диск
* DVD раздается здесь http://unionpeer.org/forum/viewtopic.php?t=562151

Треклист:
01. Все Сначала (3:11)
02. Ты не нормальный (3:31)
03. Где Любовь, Там Беда (3:43)
04. Байки (2:34)
05. Помни, не забывай (3:44)
06. H2O (4:14)
07. День Рожденья (4:17)
08. Половинка (3:15)
09. My Life (3:35)
10. Это просто сон (3:41)
11. Только Ты (3:37)
12. Каждый день с тобой (2:33)
13. Тучи в голубом (3:09)

 
Exact Audio Copy V0.99 prebeta 5 from 4. May 2009

Отчёт EAC об извлечении, выполненном 22. ноября 2010, 18:11

Кристина Орбакайте / My Life

Дисковод: ASUS DRW-24B1ST Adapter: 1 ID: 0

Режим чтения : ДостоверностьИспользование точного потока : ДаОтключение кэша аудио : ДаИспользование указателей C2 : Нет

Коррекция смещения при чтении : 6Способность читать области Lead-in и Lead-out : НетЗаполнение пропущенных сэмплов тишиной : ДаУдаление блоков с тишиной в начале и конце : НетПри вычислениях CRC использовались нулевые сэмплы : ДаИнтерфейс : Встроенный Win32-интерфейс для Win NT/2000

Выходной формат : Внутренние WAV-операцииФормат сэмплов : 44.100 Гц; 16 бит; стерео

TOC извлечённого CD

Трек | Старт | Длительность | Начальный сектор | Конечный сектор --------------------------------------------------------------------- 1 | 0:00.00 | 3:15.00 | 0 | 14624 2 | 3:15.00 | 3:50.63 | 14625 | 31937 3 | 7:05.63 | 3:45.03 | 31938 | 48815 4 | 10:50.66 | 2:36.19 | 48816 | 60534 5 | 13:27.10 | 3:51.23 | 60535 | 77882 6 | 17:18.33 | 4:15.11 | 77883 | 97018 7 | 21:33.44 | 4:19.53 | 97019 | 116496 8 | 25:53.22 | 3:17.39 | 116497 | 131310 9 | 29:10.61 | 3:36.07 | 131311 | 147517 10 | 32:46.68 | 3:46.07 | 147518 | 164474 11 | 36:33.00 | 3:39.31 | 164475 | 180930 12 | 40:12.31 | 2:46.04 | 180931 | 193384 13 | 42:58.35 | 3:11.71 | 193385 | 207780

Характеристики диапазона извлечения и сообщения об ошибках

Выбранный диапазон

Имя файла C:\Documents and Settings\Polzovatel\Мои документы\Мои рисунки\Кристина Орбакайте - My Life.wav

Пиковый уровень 99.9 % Качество диапазона 99.9 % CRC теста F9803E5D CRC копии F9803E5D Копирование... OK

Ошибок не произошло

AccurateRip: сводка

Трек 1 нет в базе данныхТрек 2 нет в базе данныхТрек 3 нет в базе данныхТрек 4 нет в базе данныхТрек 5 нет в базе данныхТрек 6 нет в базе данныхТрек 7 нет в базе данныхТрек 8 нет в базе данныхТрек 9 нет в базе данныхТрек 10 нет в базе данныхТрек 11 нет в базе данныхТрек 12 нет в базе данныхТрек 13 нет в базе данных

Ни одного трека нет в базе AccurateRip

Конец отчёта
 
REM GENRE PopREM DATE 2005REM DISCID B60AD20DREM COMMENT "ExactAudioCopy v0.99pb5"PERFORMER "Кристина Орбакайте"TITLE "My Life"FILE "Кристина Орбакайте - My Life.wav" WAVE TRACK 01 AUDIO TITLE "Все сначала" PERFORMER "Кристина Орбакайте" INDEX 01 00:00:00 TRACK 02 AUDIO TITLE "Ты ненормальный" PERFORMER "Кристина Орбакайте" INDEX 00 03:13:00 INDEX 01 03:15:00 TRACK 03 AUDIO TITLE "Где любовь, там беда" PERFORMER "Кристина Орбакайте" INDEX 00 07:03:63 INDEX 01 07:05:63 TRACK 04 AUDIO TITLE "Байки" PERFORMER "Кристина Орбакайте" INDEX 00 10:48:66 INDEX 01 10:50:66 TRACK 05 AUDIO TITLE "Помни, не забывай" PERFORMER "Кристина Орбакайте" INDEX 00 13:25:10 INDEX 01 13:27:10 TRACK 06 AUDIO TITLE "H2O" PERFORMER "Кристина Орбакайте" INDEX 00 17:16:33 INDEX 01 17:18:33 TRACK 07 AUDIO TITLE "День Рождения" PERFORMER "Кристина Орбакайте" INDEX 00 21:31:44 INDEX 01 21:33:44 TRACK 08 AUDIO TITLE "Половинка" PERFORMER "Кристина Орбакайте" INDEX 00 25:51:22 INDEX 01 25:53:22 TRACK 09 AUDIO TITLE "My Life" PERFORMER "Кристина Орбакайте" INDEX 00 29:08:61 INDEX 01 29:10:61 TRACK 10 AUDIO TITLE "Это просто сон" PERFORMER "Кристина Орбакайте" INDEX 00 32:44:68 INDEX 01 32:46:68 TRACK 11 AUDIO TITLE "Только ты" PERFORMER "Кристина Орбакайте" INDEX 00 36:31:00 INDEX 01 36:33:00 TRACK 12 AUDIO TITLE "Каждый день с тобой" PERFORMER "Кристина Орбакайте" INDEX 00 40:10:31 INDEX 01 40:12:31 TRACK 13 AUDIO TITLE "ТУчи в голубом" PERFORMER "Кристина Орбакайте" INDEX 00 42:56:35 INDEX 01 42:58:35
Лейбл: Мистерия звука
Номер по каталогу: MT 10879-519-2
Продолжительность: 46:06

Треклист:
01. Все Сначала (3:11)
02. Ты не нормальный (3:31)
03. Где Любовь, Там Беда (3:43)
04. Байки (2:34)
05. Помни, не забывай (3:44)
06. H2O (4:14)
07. День Рожденья (4:17)
08. Половинка (3:15)
09. My Life (3:35)
10. Это просто сон (3:41)
11. Только Ты (3:37)
12. Каждый день с тобой (2:33)
13. Тучи в голубом (3:09)

 
Exact Audio Copy V0.99 prebeta 5 from 4. May 2009

Отчёт EAC об извлечении, выполненном 29. апреля 2011, 14:51

Кристина Орбакайте / My Life

Дисковод: ASUS DRW-24B1ST Adapter: 1 ID: 0

Режим чтения : ДостоверностьИспользование точного потока : ДаОтключение кэша аудио : ДаИспользование указателей C2 : Нет

Коррекция смещения при чтении : 6Способность читать области Lead-in и Lead-out : НетЗаполнение пропущенных сэмплов тишиной : ДаУдаление блоков с тишиной в начале и конце : НетПри вычислениях CRC использовались нулевые сэмплы : ДаИнтерфейс : Встроенный Win32-интерфейс для Win NT/2000

Выходной формат : Внутренние WAV-операцииФормат сэмплов : 44.100 Гц; 16 бит; стерео

TOC извлечённого CD

Трек | Старт | Длительность | Начальный сектор | Конечный сектор --------------------------------------------------------------------- 1 | 0:00.00 | 3:15.00 | 0 | 14624 2 | 3:15.00 | 3:50.63 | 14625 | 31937 3 | 7:05.63 | 3:45.03 | 31938 | 48815 4 | 10:50.66 | 2:36.19 | 48816 | 60534 5 | 13:27.10 | 3:51.23 | 60535 | 77882 6 | 17:18.33 | 4:15.11 | 77883 | 97018 7 | 21:33.44 | 4:19.53 | 97019 | 116496 8 | 25:53.22 | 3:17.39 | 116497 | 131310 9 | 29:10.61 | 3:36.07 | 131311 | 147517 10 | 32:46.68 | 3:46.07 | 147518 | 164474 11 | 36:33.00 | 3:39.31 | 164475 | 180930 12 | 40:12.31 | 2:46.04 | 180931 | 193384 13 | 42:58.35 | 3:11.71 | 193385 | 207780

Характеристики диапазона извлечения и сообщения об ошибках

Выбранный диапазон

Имя файла C:\Documents and Settings\Polzovatel\Мои документы\Мои рисунки\Кристина Орбакайте - My Life.wav

Пиковый уровень 99.9 % Качество диапазона 99.9 % CRC теста 4847B795 CRC копии 4847B795 Копирование... OK

Ошибок не произошло

AccurateRip: сводка

Трек 1 точное извлечение (доверие 1) [51DBECF4]Трек 2 точное извлечение (доверие 1) [21A336FD]Трек 3 точное извлечение (доверие 1) [5DE340FD]Трек 4 точное извлечение (доверие 1) [58AD04C7]Трек 5 точное извлечение (доверие 1) [FECAFF3D]Трек 6 точное извлечение (доверие 1) [4836E36A]Трек 7 точное извлечение (доверие 1) [51A74F81]Трек 8 точное извлечение (доверие 1) [DB79B051]Трек 9 точное извлечение (доверие 1) [5456F7EB]Трек 10 точное извлечение (доверие 1) [2A6A9DA0]Трек 11 точное извлечение (доверие 1) [BB0B61A0]Трек 12 точное извлечение (доверие 1) [0C38BD38]Трек 13 точное извлечение (доверие 1) [6BD03869]

Все треки извлечены точно

Конец отчёта
 
REM GENRE PopREM DATE 2005REM DISCID B60AD20DREM COMMENT "ExactAudioCopy v0.99pb5"PERFORMER "Кристина Орбакайте"TITLE "My Life"FILE "Кристина Орбакайте - My Life.wav" WAVE TRACK 01 AUDIO TITLE "Все сначала" PERFORMER "Кристина Орбакайте" INDEX 01 00:00:00 TRACK 02 AUDIO TITLE "Ты ненормальный" PERFORMER "Кристина Орбакайте" INDEX 00 03:13:00 INDEX 01 03:15:00 TRACK 03 AUDIO TITLE "Где любовь, там беда" PERFORMER "Кристина Орбакайте" INDEX 00 07:03:63 INDEX 01 07:05:63 TRACK 04 AUDIO TITLE "Байки" PERFORMER "Кристина Орбакайте" INDEX 00 10:48:66 INDEX 01 10:50:66 TRACK 05 AUDIO TITLE "Помни, не забывай" PERFORMER "Кристина Орбакайте" INDEX 00 13:25:10 INDEX 01 13:27:10 TRACK 06 AUDIO TITLE "H2O" PERFORMER "Кристина Орбакайте" INDEX 00 17:16:33 INDEX 01 17:18:33 TRACK 07 AUDIO TITLE "День Рождения" PERFORMER "Кристина Орбакайте" INDEX 00 21:31:44 INDEX 01 21:33:44 TRACK 08 AUDIO TITLE "Половинка" PERFORMER "Кристина Орбакайте" INDEX 00 25:51:22 INDEX 01 25:53:22 TRACK 09 AUDIO TITLE "My Life" PERFORMER "Кристина Орбакайте" INDEX 00 29:08:61 INDEX 01 29:10:61 TRACK 10 AUDIO TITLE "Это просто сон" PERFORMER "Кристина Орбакайте" INDEX 00 32:44:68 INDEX 01 32:46:68 TRACK 11 AUDIO TITLE "Только ты" PERFORMER "Кристина Орбакайте" INDEX 00 36:31:00 INDEX 01 36:33:00 TRACK 12 AUDIO TITLE "Каждый день с тобой" PERFORMER "Кристина Орбакайте" INDEX 00 40:10:31 INDEX 01 40:12:31 TRACK 13 AUDIO TITLE "ТУчи в голубом" PERFORMER "Кристина Орбакайте" INDEX 00 42:56:35 INDEX 01 42:58:35
Лейбл: Мистерия звука
Номер по каталогу: CD-M-040-2/9
Продолжительность: 48:52

Треклист:
01. Солнце (3:23)
02. Я Это Вижу (3:35)
03. Спичка (3:17)
04. Опять Метель (3:41)
05. Снег (4:19)
06. Слышишь-это я... (3:44)
07. Я Нарисую (3:49)
08. Догони (3:53)
09. Только Тебе (4:24)
10. Тайна (3:42)
11. Поговорим (3:37)
12. Замуж (4:09)
13. Ангел-Хранитель (3:15)

 
Exact Audio Copy V0.99 prebeta 5 from 4. May 2009

Отчёт EAC об извлечении, выполненном 27. декабря 2010, 19:42

Кристина Орбакайте / Слышишь - это я...

Дисковод: ASUS DRW-24B1ST Adapter: 1 ID: 0

Режим чтения : ДостоверностьИспользование точного потока : ДаОтключение кэша аудио : ДаИспользование указателей C2 : Нет

Коррекция смещения при чтении : 6Способность читать области Lead-in и Lead-out : НетЗаполнение пропущенных сэмплов тишиной : ДаУдаление блоков с тишиной в начале и конце : НетПри вычислениях CRC использовались нулевые сэмплы : ДаИнтерфейс : Встроенный Win32-интерфейс для Win NT/2000

Выходной формат : Внутренние WAV-операцииФормат сэмплов : 44.100 Гц; 16 бит; стерео

TOC извлечённого CD

Трек | Старт | Длительность | Начальный сектор | Конечный сектор --------------------------------------------------------------------- 1 | 0:00.00 | 3:23.04 | 0 | 15228 2 | 3:23.04 | 3:35.52 | 15229 | 31405 3 | 6:58.56 | 3:17.55 | 31406 | 46235 4 | 10:16.36 | 3:41.27 | 46236 | 62837 5 | 13:57.63 | 4:19.00 | 62838 | 82262 6 | 18:16.63 | 3:44.23 | 82263 | 99085 7 | 22:01.11 | 3:49.00 | 99086 | 116260 8 | 25:50.11 | 3:53.41 | 116261 | 133776 9 | 29:43.52 | 4:24.66 | 133777 | 153642 10 | 34:08.43 | 3:42.35 | 153643 | 170327 11 | 37:51.03 | 3:37.48 | 170328 | 186650 12 | 41:28.51 | 4:09.02 | 186651 | 205327 13 | 45:37.53 | 3:15.15 | 205328 | 219967

Характеристики диапазона извлечения и сообщения об ошибках

Выбранный диапазон

Имя файла C:\Documents and Settings\Polzovatel\Мои документы\Мои рисунки\Кристина Орбакайте - Слышишь - это я....wav

Пиковый уровень 97.7 % Качество диапазона 100.0 % CRC теста 2F3CB08F CRC копии 2F3CB08F Копирование... OK

Ошибок не произошло

AccurateRip: сводка

Трек 1 нет в базе данныхТрек 2 нет в базе данныхТрек 3 нет в базе данныхТрек 4 нет в базе данныхТрек 5 нет в базе данныхТрек 6 нет в базе данныхТрек 7 нет в базе данныхТрек 8 нет в базе данныхТрек 9 нет в базе данныхТрек 10 нет в базе данныхТрек 11 нет в базе данныхТрек 12 нет в базе данныхТрек 13 нет в базе данных

Ни одного трека нет в базе AccurateRip

Конец отчёта
 
REM GENRE PopREM DATE 2008REM DISCID A80B740DREM COMMENT "ExactAudioCopy v0.99pb5"PERFORMER "Кристина Орбакайте"TITLE "Слышишь - это я..."FILE "Кристина Орбакайте - Слышишь - это я....wav" WAVE TRACK 01 AUDIO TITLE "Солнце" PERFORMER "Кристина Орбакайте" INDEX 01 00:00:00 TRACK 02 AUDIO TITLE "Я это вижу" PERFORMER "Кристина Орбакайте" INDEX 00 03:21:04 INDEX 01 03:23:04 TRACK 03 AUDIO TITLE "Спичка" PERFORMER "Кристина Орбакайте" INDEX 00 06:56:56 INDEX 01 06:58:56 TRACK 04 AUDIO TITLE "Опять метель (дуэт с А.Пугачевой)" PERFORMER "Кристина Орбакайте" INDEX 00 10:14:36 INDEX 01 10:16:36 TRACK 05 AUDIO TITLE "Снег" PERFORMER "Кристина Орбакайте" INDEX 00 13:55:63 INDEX 01 13:57:63 TRACK 06 AUDIO TITLE "Слышишь - это я..." PERFORMER "Кристина Орбакайте" INDEX 00 18:14:63 INDEX 01 18:16:63 TRACK 07 AUDIO TITLE "Я нарисую" PERFORMER "Кристина Орбакайте" INDEX 00 21:59:11 INDEX 01 22:01:11 TRACK 08 AUDIO TITLE "Догони" PERFORMER "Кристина Орбакайте" INDEX 00 25:48:11 INDEX 01 25:50:11 TRACK 09 AUDIO TITLE "Только тебе" PERFORMER "Кристина Орбакайте" INDEX 00 29:41:52 INDEX 01 29:43:52 TRACK 10 AUDIO TITLE "Тайна (дуэт с С.Мазаевым)" PERFORMER "Кристина Орбакайте" INDEX 00 34:06:43 INDEX 01 34:08:43 TRACK 11 AUDIO TITLE "Поговорим" PERFORMER "Кристина Орбакайте" INDEX 00 37:49:03 INDEX 01 37:51:03 TRACK 12 AUDIO TITLE "Замуж" PERFORMER "Кристина Орбакайте" INDEX 00 41:26:51 INDEX 01 41:28:51 TRACK 13 AUDIO TITLE "Ангел-Хранитель" PERFORMER "Кристина Орбакайте" INDEX 00 45:35:53 INDEX 01 45:37:53
Лейбл: Мистерия звука
Номер по каталогу: CD-M-125-9
Продолжительность: 43:50

Треклист:
01. Ультрафиолет
02. Нежная
03. Цветы
04. Разрешаю Только Раз
05. Ночь-Подруга
06. Признание
07. Хватит Шоу
08. Москва - Санкт-Петербург
09. Белая Панама
10. Тайна Без Тайн
11. Когда Мы Любим
12. Ты Где
Бонус на диске:
Хватит шоу (клип)
Нежная (клип)
Разрешаю только раз (клип)
Хватит шоу
Video: MPEG1 Video 352x288 (4:3) 25.00fps 1150Kbps
Audio: MPEG Audio 44100Hz stereo 224Kbps


Нежная
Video: MPEG1 Video 352x288 (4:3) 25.00fps 1150Kbps
Audio: MPEG Audio 44100Hz stereo 224Kbps


Разрешаю только раз
Video: MPEG1 Video 352x288 (4:3) 25.00fps 1150Kbps
Audio: MPEG Audio 44100Hz stereo 224Kbps


 
Exact Audio Copy V0.99 prebeta 5 from 4. May 2009

Отчёт EAC об извлечении, выполненном 29. апреля 2011, 13:33

Кристина Орбакайте / Поцелуй на бис

Дисковод: ASUS DRW-24B1ST Adapter: 1 ID: 0

Режим чтения : ДостоверностьИспользование точного потока : ДаОтключение кэша аудио : ДаИспользование указателей C2 : Нет

Коррекция смещения при чтении : 6Способность читать области Lead-in и Lead-out : НетЗаполнение пропущенных сэмплов тишиной : ДаУдаление блоков с тишиной в начале и конце : НетПри вычислениях CRC использовались нулевые сэмплы : ДаИнтерфейс : Встроенный Win32-интерфейс для Win NT/2000

Выходной формат : Внутренние WAV-операцииФормат сэмплов : 44.100 Гц; 16 бит; стерео

TOC извлечённого CD

Трек | Старт | Длительность | Начальный сектор | Конечный сектор --------------------------------------------------------------------- 1 | 0:00.00 | 3:46.62 | 0 | 17011 2 | 3:46.62 | 3:08.31 | 17012 | 31142 3 | 6:55.18 | 3:04.32 | 31143 | 44974 4 | 9:59.50 | 3:33.46 | 44975 | 60995 5 | 13:33.21 | 4:04.27 | 60996 | 79322 6 | 17:37.48 | 3:48.26 | 79323 | 96448 7 | 21:25.74 | 3:45.32 | 96449 | 113355 8 | 25:11.31 | 3:17.03 | 113356 | 128133 9 | 28:28.34 | 3:50.38 | 128134 | 145421 10 | 32:18.72 | 3:48.73 | 145422 | 162594 11 | 36:07.70 | 3:39.51 | 162595 | 179070 12 | 39:47.46 | 4:02.32 | 179071 | 197252 13 | 46:22.03 | 11:54.69 | 208653 | 262271

Характеристики диапазона извлечения и сообщения об ошибках

Выбранный диапазон

Имя файла C:\Documents and Settings\Polzovatel\Мои документы\Мои рисунки\Кристина Орбакайте - Поцелуй на бис.wav

Пиковый уровень 99.8 % Качество диапазона 100.0 % CRC теста 3F37158D CRC копии 3F37158D Копирование... OK

Ошибок не произошло

AccurateRip: сводка

Трек 1 нет в базе данныхТрек 2 нет в базе данныхТрек 3 нет в базе данныхТрек 4 нет в базе данныхТрек 5 нет в базе данныхТрек 6 нет в базе данныхТрек 7 нет в базе данныхТрек 8 нет в базе данныхТрек 9 нет в базе данныхТрек 10 нет в базе данныхТрек 11 нет в базе данныхТрек 12 нет в базе данных

Ни одного трека нет в базе AccurateRip

Конец отчёта
 
REM GENRE PopREM DATE 2011REM DISCID AE0DA80DREM COMMENT "ExactAudioCopy v0.99pb5"PERFORMER "Кристина Орбакайте"TITLE "Поцелуй на бис"FILE "Кристина Орбакайте - Поцелуй на бис.wav" WAVE TRACK 01 AUDIO TITLE "Ультрафиолет" PERFORMER "Кристина Орбакайте" INDEX 01 00:00:00 TRACK 02 AUDIO TITLE "Нежная" PERFORMER "Кристина Орбакайте" INDEX 01 03:46:62 TRACK 03 AUDIO TITLE "Цветы" PERFORMER "Кристина Орбакайте" INDEX 01 06:55:18 TRACK 04 AUDIO TITLE "Разрешаю только раз" PERFORMER "Кристина Орбакайте" INDEX 01 09:59:50 TRACK 05 AUDIO TITLE "Ночь-подруга" PERFORMER "Кристина Орбакайте" INDEX 01 13:33:21 TRACK 06 AUDIO TITLE "Признание" PERFORMER "Кристина Орбакайте" INDEX 01 17:37:48 TRACK 07 AUDIO TITLE "Хватит шоу" PERFORMER "Кристина Орбакайте" INDEX 01 21:25:74 TRACK 08 AUDIO TITLE "Москва - Санкт-Петербург" PERFORMER "Кристина Орбакайте" INDEX 01 25:11:31 TRACK 09 AUDIO TITLE "Белая панама" PERFORMER "Кристина Орбакайте" INDEX 01 28:28:34 TRACK 10 AUDIO TITLE "Тайна без тайн" PERFORMER "Кристина Орбакайте" INDEX 01 32:18:72 TRACK 11 AUDIO TITLE "Когда мы любим" PERFORMER "Кристина Орбакайте" INDEX 01 36:07:70 TRACK 12 AUDIO TITLE "Ты где?" PERFORMER "Кристина Орбакайте" INDEX 01 39:47:46
КОМПИЛЯЦИИ
Лейбл: Квадро-диск
Номер по каталогу: GCR 069
Продолжительность: 01:15:25
Источник : собственный диск

Российское и Украинское издание в одинаковой полиграфии,
но отличаются порядком песен
В украинском издании добавлено 2 песни, НО:
для Украины "Квадродиск" выпустил большую часть песен на
этом сборнике в неполной версии.
Неполностью песни: 2, 3, 4, 5, 6, 7, 15, 17, 18, 19, 21.
В российской версии этого альбома с 19 песнями все в полной версии.


Треклист:
01. Мой мир
02. Музыкант
03. Бесприютная душа
04. Горькое похмелье
05. Десять вечеров
06. Май
07. Без тебя
08. Ты на свете есть
09. Ну почему?
10. Поговорим
11. Пароходик
12. Бежит река
13. Вербочки
14. Дождь
15. Не бей любовь о пол
16. Обещание
17. Белый город
18. Зеркальце
19. Смородина

 
Exact Audio Copy V0.99 prebeta 5 from 4. May 2009

Отчёт EAC об извлечении, выполненном 28. февраля 2011, 16:25

Кристина Орбакайте / Grand Collection

Дисковод: ASUS DRW-24B1ST Adapter: 1 ID: 0

Режим чтения : ДостоверностьИспользование точного потока : ДаОтключение кэша аудио : ДаИспользование указателей C2 : Нет

Коррекция смещения при чтении : 6Способность читать области Lead-in и Lead-out : НетЗаполнение пропущенных сэмплов тишиной : ДаУдаление блоков с тишиной в начале и конце : НетПри вычислениях CRC использовались нулевые сэмплы : ДаИнтерфейс : Встроенный Win32-интерфейс для Win NT/2000

Выходной формат : Внутренние WAV-операцииФормат сэмплов : 44.100 Гц; 16 бит; стерео

TOC извлечённого CD

Трек | Старт | Длительность | Начальный сектор | Конечный сектор --------------------------------------------------------------------- 1 | 0:00.00 | 2:22.64 | 0 | 10713 2 | 2:22.64 | 3:55.47 | 10714 | 28385 3 | 6:18.36 | 4:42.62 | 28386 | 49597 4 | 11:01.23 | 3:49.64 | 49598 | 66836 5 | 14:51.12 | 3:55.22 | 66837 | 84483 6 | 18:46.34 | 3:31.66 | 84484 | 100374 7 | 22:18.25 | 3:51.32 | 100375 | 117731 8 | 26:09.57 | 4:21.41 | 117732 | 137347 9 | 30:31.23 | 4:54.53 | 137348 | 159450 10 | 35:26.01 | 3:23.33 | 159451 | 174708 11 | 38:49.34 | 4:52.23 | 174709 | 196631 12 | 43:41.57 | 2:59.25 | 196632 | 210081 13 | 46:41.07 | 6:08.00 | 210082 | 237681 14 | 52:49.07 | 3:59.18 | 237682 | 255624 15 | 56:48.25 | 3:38.15 | 255625 | 271989 16 | 60:26.40 | 4:19.66 | 271990 | 291480 17 | 64:46.31 | 4:16.64 | 291481 | 310744 18 | 69:03.20 | 3:14.19 | 310745 | 325313 19 | 72:17.39 | 3:18.46 | 325314 | 340209

Характеристики диапазона извлечения и сообщения об ошибках

Выбранный диапазон

Имя файла C:\Documents and Settings\Polzovatel\Мои документы\Кристина Орбакайте - Grand Collection.wav

Пиковый уровень 100.0 % Качество диапазона 100.0 % CRC теста 71B85EEF CRC копии 71B85EEF Копирование... OK

Ошибок не произошло

AccurateRip: сводка

Трек 1 нет в базе данныхТрек 2 нет в базе данныхТрек 3 нет в базе данныхТрек 4 нет в базе данныхТрек 5 нет в базе данныхТрек 6 нет в базе данныхТрек 7 нет в базе данныхТрек 8 нет в базе данныхТрек 9 нет в базе данныхТрек 10 нет в базе данныхТрек 11 нет в базе данныхТрек 12 нет в базе данныхТрек 13 нет в базе данныхТрек 14 нет в базе данныхТрек 15 нет в базе данныхТрек 16 нет в базе данныхТрек 17 нет в базе данныхТрек 18 нет в базе данныхТрек 19 нет в базе данных

Ни одного трека нет в базе AccurateRip

Конец отчёта
 
REM GENRE PopREM DATE 2002REM DISCID FD11B813REM COMMENT "ExactAudioCopy v0.99pb5"PERFORMER "Кристина Орбакайте"TITLE "Grand Collection"FILE "Кристина Орбакайте - Grand Collection.wav" WAVE TRACK 01 AUDIO TITLE "Мой мир" PERFORMER "Кристина Орбакайте" INDEX 01 00:00:00 TRACK 02 AUDIO TITLE "Музыкант" PERFORMER "Кристина Орбакайте" INDEX 00 02:20:65 INDEX 01 02:22:64 TRACK 03 AUDIO TITLE "Бесприютная душа" PERFORMER "Кристина Орбакайте" INDEX 00 06:16:72 INDEX 01 06:18:36 TRACK 04 AUDIO TITLE "Горькое похмелье" PERFORMER "Кристина Орбакайте" INDEX 00 10:59:24 INDEX 01 11:01:23 TRACK 05 AUDIO TITLE "Десять вечеров" PERFORMER "Кристина Орбакайте" INDEX 00 14:49:13 INDEX 01 14:51:12 TRACK 06 AUDIO TITLE "Май" PERFORMER "Кристина Орбакайте" INDEX 00 18:44:34 INDEX 01 18:46:34 TRACK 07 AUDIO TITLE "Без тебя" PERFORMER "Кристина Орбакайте" INDEX 00 22:16:25 INDEX 01 22:18:25 TRACK 08 AUDIO TITLE "Ты на свете есть" PERFORMER "Кристина Орбакайте" INDEX 00 26:07:58 INDEX 01 26:09:57 TRACK 09 AUDIO TITLE "Ну почему?" PERFORMER "Кристина Орбакайте" INDEX 00 30:29:24 INDEX 01 30:31:23 TRACK 10 AUDIO TITLE "Поговорим" PERFORMER "Кристина Орбакайте" INDEX 00 35:24:02 INDEX 01 35:26:01 TRACK 11 AUDIO TITLE "Пароходик" PERFORMER "Кристина Орбакайте" INDEX 00 38:47:35 INDEX 01 38:49:34 TRACK 12 AUDIO TITLE "Бежит река" PERFORMER "Кристина Орбакайте" INDEX 00 43:39:58 INDEX 01 43:41:57 TRACK 13 AUDIO TITLE "Вербочки" PERFORMER "Кристина Орбакайте" INDEX 00 46:39:07 INDEX 01 46:41:07 TRACK 14 AUDIO TITLE "Дождь" PERFORMER "Кристина Орбакайте" INDEX 00 52:47:08 INDEX 01 52:49:07 TRACK 15 AUDIO TITLE "Не бей любовь о пол" PERFORMER "Кристина Орбакайте" INDEX 00 56:46:26 INDEX 01 56:48:25 TRACK 16 AUDIO TITLE "Обещание" PERFORMER "Кристина Орбакайте" INDEX 00 60:24:41 INDEX 01 60:26:40 TRACK 17 AUDIO TITLE "Белый город" PERFORMER "Кристина Орбакайте" INDEX 00 64:44:31 INDEX 01 64:46:31 TRACK 18 AUDIO TITLE "Зеркальце" PERFORMER "Кристина Орбакайте" INDEX 00 69:01:21 INDEX 01 69:03:20 TRACK 19 AUDIO TITLE "Смородина" PERFORMER "Кристина Орбакайте" INDEX 00 72:15:40 INDEX 01 72:17:39
Лейбл: Квадро-диск
Номер по каталогу: GCR 200
Продолжительность: 01:19:19
Источник : собственный диск

Треклист:
01. Перелетная птица
02. Просто любить тебя
03. Каждый день с тобой
04. Рио-де-жанейро
05. Свет твоей любви
06. Все сначала
07. Это просто сон
08. Помни, не забывай
09. Губки бантиком
10. Ты ненормальный
11. Ты буди меня
12. Да-ди-дам
13. Как жаль
14. Танго втроем
15. Только ты
16. Я тебя подожду
17. Сказка для двоих
18. Десять вечеров
19. Бесприютная душа
20. Байки
21. Мой мир
22. Лето, лето

 
Exact Audio Copy V0.99 prebeta 5 from 4. May 2009

Отчёт EAC об извлечении, выполненном 28. февраля 2011, 16:57

Кристина Орбакайте / Grand Collection (часть 2)

Дисковод: ASUS DRW-24B1ST Adapter: 1 ID: 0

Режим чтения : ДостоверностьИспользование точного потока : ДаОтключение кэша аудио : ДаИспользование указателей C2 : Нет

Коррекция смещения при чтении : 6Способность читать области Lead-in и Lead-out : НетЗаполнение пропущенных сэмплов тишиной : ДаУдаление блоков с тишиной в начале и конце : НетПри вычислениях CRC использовались нулевые сэмплы : ДаИнтерфейс : Встроенный Win32-интерфейс для Win NT/2000

Выходной формат : Внутренние WAV-операцииФормат сэмплов : 44.100 Гц; 16 бит; стерео

TOC извлечённого CD

Трек | Старт | Длительность | Начальный сектор | Конечный сектор --------------------------------------------------------------------- 1 | 0:00.00 | 3:10.00 | 0 | 14249 2 | 3:10.00 | 3:44.00 | 14250 | 31049 3 | 6:54.00 | 2:46.04 | 31050 | 43503 4 | 9:40.04 | 4:04.56 | 43504 | 61859 5 | 13:44.60 | 3:34.00 | 61860 | 77909 6 | 17:18.60 | 3:15.00 | 77910 | 92534 7 | 20:33.60 | 3:46.07 | 92535 | 109491 8 | 24:19.67 | 3:51.23 | 109492 | 126839 9 | 28:11.15 | 2:21.00 | 126840 | 137414 10 | 30:32.15 | 3:50.63 | 137415 | 154727 11 | 34:23.03 | 4:26.00 | 154728 | 174677 12 | 38:49.03 | 3:40.14 | 174678 | 191191 13 | 42:29.17 | 4:23.70 | 191192 | 210986 14 | 46:53.12 | 4:06.17 | 210987 | 229453 15 | 50:59.29 | 3:39.31 | 229454 | 245909 16 | 54:38.60 | 3:03.13 | 245910 | 259647 17 | 57:41.73 | 4:04.43 | 259648 | 277990 18 | 61:46.41 | 3:55.19 | 277991 | 295634 19 | 65:41.60 | 4:41.54 | 295635 | 316763 20 | 70:23.39 | 2:36.19 | 316764 | 328482 21 | 72:59.58 | 2:23.68 | 328483 | 339275 22 | 75:23.51 | 4:09.00 | 339276 | 357950

Характеристики диапазона извлечения и сообщения об ошибках

Выбранный диапазон

Имя файла C:\Documents and Settings\Polzovatel\Мои документы\Кристина Орбакайте - Grand Collection (часть 2).wav

Пиковый уровень 98.8 % Качество диапазона 100.0 % CRC теста 4B86ADAE CRC копии 4B86ADAE Копирование... OK

Ошибок не произошло

AccurateRip: сводка

Трек 1 нет в базе данныхТрек 2 нет в базе данныхТрек 3 нет в базе данныхТрек 4 нет в базе данныхТрек 5 нет в базе данныхТрек 6 нет в базе данныхТрек 7 нет в базе данныхТрек 8 нет в базе данныхТрек 9 нет в базе данныхТрек 10 нет в базе данныхТрек 11 нет в базе данныхТрек 12 нет в базе данныхТрек 13 нет в базе данныхТрек 14 нет в базе данныхТрек 15 нет в базе данныхТрек 16 нет в базе данныхТрек 17 нет в базе данныхТрек 18 нет в базе данныхТрек 19 нет в базе данныхТрек 20 нет в базе данныхТрек 21 нет в базе данныхТрек 22 нет в базе данных

Ни один трек не прошёл проверки на точностьВ вашей базе может быть иной вариант штамповки диска

Конец отчёта
 
REM GENRE PopREM DATE 2006REM DISCID 2412A416REM COMMENT "ExactAudioCopy v0.99pb5"PERFORMER "Кристина Орбакайте"TITLE "Grand Collection (часть 2)"FILE "Кристина Орбакайте - Grand Collection (часть 2).wav" WAVE TRACK 01 AUDIO TITLE "Перелетная птица" PERFORMER "Кристина Орбакайте" INDEX 01 00:00:00 TRACK 02 AUDIO TITLE "Просто любить тебя (дуэт с Авраамом Руссо)" PERFORMER "Кристина Орбакайте" INDEX 01 03:10:00 TRACK 03 AUDIO TITLE "Каждый день с тобой" PERFORMER "Кристина Орбакайте" INDEX 01 06:54:00 TRACK 04 AUDIO TITLE "Рио-де-жанейро" PERFORMER "Кристина Орбакайте" INDEX 01 09:40:04 TRACK 05 AUDIO TITLE "Свет твоей любви" PERFORMER "Кристина Орбакайте" INDEX 01 13:44:60 TRACK 06 AUDIO TITLE "Всё сначала" PERFORMER "Кристина Орбакайте" INDEX 01 17:18:60 TRACK 07 AUDIO TITLE "Это просто сон" PERFORMER "Кристина Орбакайте" INDEX 01 20:33:60 TRACK 08 AUDIO TITLE "Помни, не забывай" PERFORMER "Кристина Орбакайте" INDEX 01 24:19:67 TRACK 09 AUDIO TITLE "Губки бантиком" PERFORMER "Кристина Орбакайте" INDEX 01 28:11:15 TRACK 10 AUDIO TITLE "Ты ненормальный" PERFORMER "Кристина Орбакайте" INDEX 01 30:32:15 TRACK 11 AUDIO TITLE "Ты буди меня" PERFORMER "Кристина Орбакайте" INDEX 01 34:23:03 TRACK 12 AUDIO TITLE "Да-ди-дам" PERFORMER "Кристина Орбакайте" INDEX 01 38:49:03 TRACK 13 AUDIO TITLE "Как жаль" PERFORMER "Кристина Орбакайте" INDEX 01 42:29:17 TRACK 14 AUDIO TITLE "Танго втроем" PERFORMER "Кристина Орбакайте" INDEX 01 46:53:12 TRACK 15 AUDIO TITLE "Только ты" PERFORMER "Кристина Орбакайте" INDEX 01 50:59:29 TRACK 16 AUDIO TITLE "Я тебя подожду" PERFORMER "Кристина Орбакайте" INDEX 01 54:38:60 TRACK 17 AUDIO TITLE "Сказка для двоих" PERFORMER "Кристина Орбакайте" INDEX 01 57:41:73 TRACK 18 AUDIO TITLE "Десять вечеров" PERFORMER "Кристина Орбакайте" INDEX 01 61:46:41 TRACK 19 AUDIO TITLE "Бесприютная душа" PERFORMER "Кристина Орбакайте" INDEX 01 65:41:60 TRACK 20 AUDIO TITLE "Байки" PERFORMER "Кристина Орбакайте" INDEX 01 70:23:39 TRACK 21 AUDIO TITLE "Мой мир" PERFORMER "Кристина Орбакайте" INDEX 01 72:59:58 TRACK 22 AUDIO TITLE "Лето, лето" PERFORMER "Кристина Орбакайте" INDEX 01 75:23:51
Лейбл: Гранд Рекордз
Номер по каталогу: GR CD-450
Продолжительность: 01:15:47

Треклист:
01. Перелетная птица
02. Все сначала
03. Просто любить тебя (дуэт с А. Руссо)
04. Мир, в котором я живу (мой мир)
05. Бесприютная душа
06. Губки бантиком
07. Десять вечеров
08. Май
09. Ты
10. Танго втроем
11. Музыкант
12. Да-ди-дам
13. Свет твоей любви
14. Смородина
15. Пароход и к надежды
16. Зеркальце
17. Вербочки
18. Без тебя
19. Ты ненормальный
20. Ты буди меня

 
Exact Audio Copy V0.99 prebeta 5 from 4. May 2009

Отчёт EAC об извлечении, выполненном 27. декабря 2010, 18:18

Кристина Орбакайте / Лучшие песни (серия `Новая коллекция`)

Дисковод: ASUS DRW-24B1ST Adapter: 1 ID: 0

Режим чтения : ДостоверностьИспользование точного потока : ДаОтключение кэша аудио : ДаИспользование указателей C2 : Нет

Коррекция смещения при чтении : 6Способность читать области Lead-in и Lead-out : НетЗаполнение пропущенных сэмплов тишиной : ДаУдаление блоков с тишиной в начале и конце : НетПри вычислениях CRC использовались нулевые сэмплы : ДаИнтерфейс : Встроенный Win32-интерфейс для Win NT/2000

Выходной формат : Внутренние WAV-операцииФормат сэмплов : 44.100 Гц; 16 бит; стерео

TOC извлечённого CD

Трек | Старт | Длительность | Начальный сектор | Конечный сектор --------------------------------------------------------------------- 1 | 0:00.00 | 3:09.52 | 0 | 14226 2 | 3:09.52 | 3:12.01 | 14227 | 28627 3 | 6:21.53 | 3:43.26 | 28628 | 45378 4 | 10:05.04 | 2:20.65 | 45379 | 55943 5 | 12:25.69 | 4:40.72 | 55944 | 77015 6 | 17:06.66 | 2:20.27 | 77016 | 87542 7 | 19:27.18 | 3:54.69 | 87543 | 105161 8 | 23:22.12 | 3:30.33 | 105162 | 120944 9 | 26:52.45 | 4:20.13 | 120945 | 140457 10 | 31:12.58 | 4:04.70 | 140458 | 158827 11 | 35:17.53 | 3:54.67 | 158828 | 176444 12 | 39:12.45 | 3:38.50 | 176445 | 192844 13 | 42:51.20 | 3:31.14 | 192845 | 208683 14 | 46:22.34 | 3:17.60 | 208684 | 223518 15 | 49:40.19 | 4:50.66 | 223519 | 245334 16 | 54:31.10 | 3:12.31 | 245335 | 259765 17 | 57:43.41 | 6:05.36 | 259766 | 287176 18 | 63:49.02 | 3:49.69 | 287177 | 304420 19 | 67:38.71 | 3:46.43 | 304421 | 321413 20 | 71:25.39 | 4:21.72 | 321414 | 341060

Характеристики диапазона извлечения и сообщения об ошибках

Выбранный диапазон

Имя файла C:\Documents and Settings\Polzovatel\Мои документы\Мои рисунки\Кристина Орбакайте - Лучшие песни (серия `Новая коллекция`).wav

Пиковый уровень 100.0 % Качество диапазона 100.0 % CRC теста 6CED002C CRC копии 6CED002C Копирование... OK

Ошибок не произошло

AccurateRip: сводка

Трек 1 нет в базе данныхТрек 2 нет в базе данныхТрек 3 нет в базе данныхТрек 4 нет в базе данныхТрек 5 нет в базе данныхТрек 6 нет в базе данныхТрек 7 нет в базе данныхТрек 8 нет в базе данныхТрек 9 нет в базе данныхТрек 10 нет в базе данныхТрек 11 нет в базе данныхТрек 12 нет в базе данныхТрек 13 нет в базе данныхТрек 14 нет в базе данныхТрек 15 нет в базе данныхТрек 16 нет в базе данныхТрек 17 нет в базе данныхТрек 18 нет в базе данныхТрек 19 нет в базе данныхТрек 20 нет в базе данных

Ни одного трека нет в базе AccurateRip

Конец отчёта
 
REM GENRE PopREM DATE 2006REM DISCID 2511C314REM COMMENT "ExactAudioCopy v0.99pb5"PERFORMER "Кристина Орбакайте"TITLE "Лучшие песни (серия `Новая коллекция`)"FILE "Кристина Орбакайте - Лучшие песни (серия `Новая коллекция`).wav" WAVE TRACK 01 AUDIO TITLE "Перелетная птица" PERFORMER "Кристина Орбакайте" INDEX 01 00:00:00 TRACK 02 AUDIO TITLE "Все сначала" PERFORMER "Кристина Орбакайте" INDEX 01 03:09:52 TRACK 03 AUDIO TITLE "Просто любить тебя (дуэт с А. Руссо)" PERFORMER "Кристина Орбакайте" INDEX 01 06:21:53 TRACK 04 AUDIO TITLE "Мир, в котором я живу (мой мир)" PERFORMER "Кристина Орбакайте" INDEX 01 10:05:04 TRACK 05 AUDIO TITLE "Бесприютная душа" PERFORMER "Кристина Орбакайте" INDEX 01 12:25:69 TRACK 06 AUDIO TITLE "Губки бантиком" PERFORMER "Кристина Орбакайте" INDEX 01 17:06:66 TRACK 07 AUDIO TITLE "Десять вечеров" PERFORMER "Кристина Орбакайте" INDEX 01 19:27:18 TRACK 08 AUDIO TITLE "май" PERFORMER "Кристина Орбакайте" INDEX 01 23:22:12 TRACK 09 AUDIO TITLE "Ты" PERFORMER "Кристина Орбакайте" INDEX 01 26:52:45 TRACK 10 AUDIO TITLE "Танго втроем" PERFORMER "Кристина Орбакайте" INDEX 01 31:12:58 TRACK 11 AUDIO TITLE "Музыкант" PERFORMER "Кристина Орбакайте" INDEX 01 35:17:53 TRACK 12 AUDIO TITLE "Да-Ди-Дам" PERFORMER "Кристина Орбакайте" INDEX 01 39:12:45 TRACK 13 AUDIO TITLE "Свет твоей любви" PERFORMER "Кристина Орбакайте" INDEX 01 42:51:20 TRACK 14 AUDIO TITLE "Смородина" PERFORMER "Кристина Орбакайте" INDEX 01 46:22:34 TRACK 15 AUDIO TITLE "Пароходик надежды" PERFORMER "Кристина Орбакайте" INDEX 01 49:40:19 TRACK 16 AUDIO TITLE "Зеркальце" PERFORMER "Кристина Орбакайте" INDEX 01 54:31:10 TRACK 17 AUDIO TITLE "Вербочки" PERFORMER "Кристина Орбакайте" INDEX 01 57:43:41 TRACK 18 AUDIO TITLE "Без тебя" PERFORMER "Кристина Орбакайте" INDEX 01 63:49:02 TRACK 19 AUDIO TITLE "Ты ненормальный" PERFORMER "Кристина Орбакайте" INDEX 01 67:38:71 TRACK 20 AUDIO TITLE "Ты буди меня" PERFORMER "Кристина Орбакайте" INDEX 01 71:25:39
Лейбл: Мистерия звука
Номер по каталогу: CD-M-092-2
Продолжительность: 56:08

Треклист:
01. Позови меня
02. Горькое похмелье
03. Все, то что им нужно это только любовь (Live)
04. Пароходик
05. Смородина
06. Зеркальце
07. Музыкант
08. Май
09. Не бей любовь о пол
10. Десять вечеров
11. Рио-Де-Жанейро
12. Перелетная птица
13. Свет твоей любви
14. Спичка
15. Солнце

 
Exact Audio Copy V0.99 prebeta 5 from 4. May 2009

Отчёт EAC об извлечении, выполненном 29. апреля 2011, 15:33

Кристина Орбакайте / The Best (Disc 1)

Дисковод: ASUS DRW-24B1ST Adapter: 1 ID: 0

Режим чтения : ДостоверностьИспользование точного потока : ДаОтключение кэша аудио : ДаИспользование указателей C2 : Нет

Коррекция смещения при чтении : 6Способность читать области Lead-in и Lead-out : НетЗаполнение пропущенных сэмплов тишиной : ДаУдаление блоков с тишиной в начале и конце : НетПри вычислениях CRC использовались нулевые сэмплы : ДаИнтерфейс : Встроенный Win32-интерфейс для Win NT/2000

Выходной формат : Внутренние WAV-операцииФормат сэмплов : 44.100 Гц; 16 бит; стерео

TOC извлечённого CD

Трек | Старт | Длительность | Начальный сектор | Конечный сектор --------------------------------------------------------------------- 1 | 0:00.00 | 4:04.37 | 0 | 18336 2 | 4:04.37 | 3:49.67 | 18337 | 35578 3 | 7:54.29 | 4:16.60 | 35579 | 54838 4 | 12:11.14 | 4:53.32 | 54839 | 76845 5 | 17:04.46 | 3:18.71 | 76846 | 91766 6 | 20:23.42 | 3:13.37 | 91767 | 106278 7 | 23:37.04 | 3:55.73 | 106279 | 123976 8 | 27:33.02 | 3:32.66 | 123977 | 139942 9 | 31:05.68 | 3:36.71 | 139943 | 156213 10 | 34:42.64 | 3:55.36 | 156214 | 173874 11 | 38:38.25 | 4:04.56 | 173875 | 192230 12 | 42:43.06 | 3:10.00 | 192231 | 206480 13 | 45:53.06 | 3:34.00 | 206481 | 222530 14 | 49:27.06 | 3:17.55 | 222531 | 237360 15 | 52:44.61 | 3:23.64 | 237361 | 252649

Характеристики диапазона извлечения и сообщения об ошибках

Выбранный диапазон

Имя файла C:\Documents and Settings\Polzovatel\Мои документы\Мои рисунки\Кристина Орбакайте - The Best (Disc 1).wav

Пиковый уровень 100.0 % Качество диапазона 100.0 % CRC теста A630DB58 CRC копии A630DB58 Копирование... OK

Ошибок не произошло

AccurateRip: сводка

Трек 1 нет в базе данныхТрек 2 нет в базе данныхТрек 3 нет в базе данныхТрек 4 нет в базе данныхТрек 5 нет в базе данныхТрек 6 нет в базе данныхТрек 7 нет в базе данныхТрек 8 нет в базе данныхТрек 9 нет в базе данныхТрек 10 нет в базе данныхТрек 11 нет в базе данныхТрек 12 нет в базе данныхТрек 13 нет в базе данныхТрек 14 нет в базе данныхТрек 15 нет в базе данных

Ни одного трека нет в базе AccurateRip

Конец отчёта
 
REM GENRE PopREM DATE 2009REM DISCID D90D280FREM COMMENT "ExactAudioCopy v0.99pb5"PERFORMER "Кристина Орбакайте"TITLE "The Best (Disc 1)"FILE "Кристина Орбакайте - The Best (Disc 1).wav" WAVE TRACK 01 AUDIO TITLE "Позови меня" PERFORMER "Кристина Орбакайте" INDEX 01 00:00:00 TRACK 02 AUDIO TITLE "Горькое похмелье" PERFORMER "Кристина Орбакайте" INDEX 01 04:04:37 TRACK 03 AUDIO TITLE "Все, что им нужно, это только любовь" PERFORMER "Кристина Орбакайте" INDEX 01 07:54:29 TRACK 04 AUDIO TITLE "Пароходик" PERFORMER "Кристина Орбакайте" INDEX 01 12:11:14 TRACK 05 AUDIO TITLE "Смородина" PERFORMER "Кристина Орбакайте" INDEX 01 17:04:46 TRACK 06 AUDIO TITLE "Зеркальце" PERFORMER "Кристина Орбакайте" INDEX 01 20:23:42 TRACK 07 AUDIO TITLE "Музыкант" PERFORMER "Кристина Орбакайте" INDEX 01 23:37:04 TRACK 08 AUDIO TITLE "Май" PERFORMER "Кристина Орбакайте" INDEX 01 27:33:02 TRACK 09 AUDIO TITLE "Не бей любовь..." PERFORMER "Кристина Орбакайте" INDEX 01 31:05:68 TRACK 10 AUDIO TITLE "Десять вечеров" PERFORMER "Кристина Орбакайте" INDEX 01 34:42:64 TRACK 11 AUDIO TITLE "Рио-Де-Жанейро" PERFORMER "Кристина Орбакайте" INDEX 01 38:38:25 TRACK 12 AUDIO TITLE "Перелетная птица" PERFORMER "Кристина Орбакайте" INDEX 01 42:43:06 TRACK 13 AUDIO TITLE "Свет твоей любви" PERFORMER "Кристина Орбакайте" INDEX 01 45:53:06 TRACK 14 AUDIO TITLE "Спичка" PERFORMER "Кристина Орбакайте" INDEX 01 49:27:06 TRACK 15 AUDIO TITLE "Солнце" PERFORMER "Кристина Орбакайте" INDEX 01 52:44:61
Лейбл: Мистерия звука
Номер по каталогу: CD-M-093-2
Продолжительность: 43:50

Треклист:
01. Поговорим
02. Последнее свидание
03. Танго втроем
04. Без тебя
05. Птицы
06. Никогда
07. Да-ди-дам
08. Мой мир
09. Губки бантиком
10. Я к тебе не вернусь
11. Я не сказала
12. Это просто сон
13. Помни, не забывай
14. Я нарисую
15. Я это вижу

 
Exact Audio Copy V0.99 prebeta 5 from 4. May 2009

Отчёт EAC об извлечении, выполненном 29. апреля 2011, 16:00

Кристина Орбакайте / The Best (disc 2)

Дисковод: ASUS DRW-24B1ST Adapter: 1 ID: 0

Режим чтения : ДостоверностьИспользование точного потока : ДаОтключение кэша аудио : ДаИспользование указателей C2 : Нет

Коррекция смещения при чтении : 6Способность читать области Lead-in и Lead-out : НетЗаполнение пропущенных сэмплов тишиной : ДаУдаление блоков с тишиной в начале и конце : НетПри вычислениях CRC использовались нулевые сэмплы : ДаИнтерфейс : Встроенный Win32-интерфейс для Win NT/2000

Выходной формат : Внутренние WAV-операцииФормат сэмплов : 44.100 Гц; 16 бит; стерео

TOC извлечённого CD

Трек | Старт | Длительность | Начальный сектор | Конечный сектор --------------------------------------------------------------------- 1 | 0:00.00 | 3:23.30 | 0 | 15254 2 | 3:23.30 | 4:56.07 | 15255 | 37461 3 | 8:19.37 | 4:07.08 | 37462 | 55994 4 | 12:26.45 | 3:52.32 | 55995 | 73426 5 | 16:19.02 | 2:52.50 | 73427 | 86376 6 | 19:11.52 | 3:55.15 | 86377 | 104016 7 | 23:06.67 | 3:40.14 | 104017 | 120530 8 | 26:47.06 | 2:23.69 | 120531 | 131324 9 | 29:11.00 | 2:21.00 | 131325 | 141899 10 | 31:32.00 | 3:27.00 | 141900 | 157424 11 | 34:59.00 | 2:40.00 | 157425 | 169424 12 | 37:39.00 | 3:46.07 | 169425 | 186381 13 | 41:25.07 | 3:51.23 | 186382 | 203729 14 | 45:16.30 | 3:49.00 | 203730 | 220904 15 | 49:05.30 | 3:36.37 | 220905 | 237141

Характеристики диапазона извлечения и сообщения об ошибках

Выбранный диапазон

Имя файла C:\Documents and Settings\Polzovatel\Мои документы\Мои рисунки\Кристина Орбакайте - The Best (disc 2).wav

Пиковый уровень 100.0 % Качество диапазона 99.9 % CRC теста B084D2A4 CRC копии B084D2A4 Копирование... OK

Ошибок не произошло

AccurateRip: сводка

Трек 1 нет в базе данныхТрек 2 нет в базе данныхТрек 3 нет в базе данныхТрек 4 нет в базе данныхТрек 5 нет в базе данныхТрек 6 нет в базе данныхТрек 7 нет в базе данныхТрек 8 нет в базе данныхТрек 9 нет в базе данныхТрек 10 нет в базе данныхТрек 11 нет в базе данныхТрек 12 нет в базе данныхТрек 13 нет в базе данныхТрек 14 нет в базе данныхТрек 15 нет в базе данных

Ни одного трека нет в базе AccurateRip

Конец отчёта
 
REM GENRE PopREM DATE 2009REM DISCID D40C590FREM COMMENT "ExactAudioCopy v0.99pb5"PERFORMER "Кристина Орбакайте"TITLE "The Best (disc 2)"FILE "Кристина Орбакайте - The Best (disc 2).wav" WAVE TRACK 01 AUDIO TITLE "Поговорим" PERFORMER "Кристина Орбакайте" INDEX 01 00:00:00 TRACK 02 AUDIO TITLE "Последнее свидание" PERFORMER "Кристина Орбакайте" INDEX 01 03:23:30 TRACK 03 AUDIO TITLE "Танго втроем" PERFORMER "Кристина Орбакайте" INDEX 01 08:19:37 TRACK 04 AUDIO TITLE "Без тебя" PERFORMER "Кристина Орбакайте" INDEX 01 12:26:45 TRACK 05 AUDIO TITLE "Птицы" PERFORMER "Кристина Орбакайте" INDEX 01 16:19:02 TRACK 06 AUDIO TITLE "Никогда" PERFORMER "Кристина Орбакайте" INDEX 01 19:11:52 TRACK 07 AUDIO TITLE "Да-ди-дам" PERFORMER "Кристина Орбакайте" INDEX 01 23:06:67 TRACK 08 AUDIO TITLE "Мой мир" PERFORMER "Кристина Орбакайте" INDEX 01 26:47:06 TRACK 09 AUDIO TITLE "Губки бантиком" PERFORMER "Кристина Орбакайте" INDEX 01 29:11:00 TRACK 10 AUDIO TITLE "Я к тебе не вернусь" PERFORMER "Кристина Орбакайте" INDEX 01 31:32:00 TRACK 11 AUDIO TITLE "Я не сказала" PERFORMER "Кристина Орбакайте" INDEX 01 34:59:00 TRACK 12 AUDIO TITLE "Это просто сон" PERFORMER "Кристина Орбакайте" INDEX 01 37:39:00 TRACK 13 AUDIO TITLE "Помни, не забывай" PERFORMER "Кристина Орбакайте" INDEX 01 41:25:07 TRACK 14 AUDIO TITLE "Я нарисую" PERFORMER "Кристина Орбакайте" INDEX 01 45:16:30 TRACK 15 AUDIO TITLE "Я это вижу" PERFORMER "Кристина Орбакайте" INDEX 01 49:05:30


Трекер:  [ 30-Апр-2011 12:06 ]

  

Скачать .torrent

Размер .torrent файла 51 KB


Размер: 6.57 GB
Хэш (hash) релиза: ea0dcb4fd441602a45b03d96c5be5fcec46d6b3e

Еще никто не оставлял запись к записи скачать торрент Кристина Орбакайте - 11 Альбомов . Будь первым!

!Обратная связь