Скачать через торрент Копье и маски Lance N Masques бесплатно Аниме Все серии на русском torrent

Если у вас наблюдаются проблемы со скриншотами, переходом по ссылками, скачиванием торрентов - проблемы в блокировщике рекламы AdBlock. #хорошегоДня!


Статистика раздачи
Размер:  1.06 GB   |    Зарегистрирован:  1 год 8 месяцев   |    .torrent скачан:  15 раз   |   
Раздают:  1  
   
Загрузка...
 
Автор Сообщение

Galfimbul

avatar Galfimbul


Копье и маски / Lance N' Masques
ランス・アンド・マスクス
Страна: Япония
Год выпуска: c 02.10.2015 по 18.12.20155
Жанр: Приключения, фэнтези, экшн,
Тип: TV
Продолжительность: 12 эп. по 25 мин
Студия:
Режиссер: Исигуро Кёхэй
Автор оригинала: Коясу Хидэаки

Описание: В наше современное и технологически развитое время настоящих рыцарей уже не осталось. Все они вышли из моды и канули в небытие. Йотаро Ханабуса — один из немногих оставшихся верным старым традициям рыцарь, последний из своего ордена, стремящийся вернуть старые традиции. Сюжет данного аниме описывает приключения юного рыцаря, а также его подруги — Макио Кидоин, девушки из знатной семьи, ученицы рыцаря Элис Кливеленд, а также верной наставницы Йотаро — Йорико Судо.
World-Art
Качество: BDRip [=^_^=]

Тип релиза: Без хардсаба

Формат видео: MKV
<div style="margin-left: 2em" class="post-ul">Видео: x264 (8 bits), 1280x720, 23.976 fps, 2318 Kbps
Аудио: японский, VORBIS, 2 канала, 48 КГц, 233 Кбит/сек
Субтитры:
<div style="margin-left: 2em" class="post-ul">(Russian): ASS, внешние Ani-Panic

Переводчик: Veles
ОбщееУникальный идентификатор : 246261318229362092336756735305512166598 (0xB9443466B597D0EE8AE767B6A8CCA4C6)Полное имя : D:\[=^_^=] Lance N` Masques [BD720]\[=^_^=] Lance N` Masques 01 [BDrip 1280x720 x264 Vorbis].mkvФормат : MatroskaВерсия формата : Version 4 / Version 2Размер файла : 442 МбайтПродолжительность : 24 м.Режим общего битрейта : ПеременныйОбщий поток : 2553 Кбит/секДата кодирования : UTC 2015-12-24 12:52:01Программа кодирования : mkvmerge v8.0.0 ('Til The Day That I Die') 64bitБиблиотека кодирования : libebml v1.3.1 + libmatroska v1.4.2DURATION : 00:24:11.496000000NUMBER_OF_FRAMES : 147814NUMBER_OF_BYTES : 42054646_STATISTICS_WRITING_APP : mkvmerge v8.0.0 ('Til The Day That I Die') 64bit_STATISTICS_WRITING_DATE_UTC : 2015-12-24 12:52:01_STATISTICS_TAGS : BPS DURATION NUMBER_OF_FRAMES NUMBER_OF_BYTES

ВидеоИдентификатор : 1Формат : AVCФормат/Информация : Advanced Video CodecПрофиль формата : High 10@L4.1Параметр CABAC формата : ДаПараметр ReFrames формата : 9 кадровИдентификатор кодека : V_MPEG4/ISO/AVCПродолжительность : 24 м.Битрейт : 2246 Кбит/секШирина : 1280 пикселейВысота : 720 пикселейСоотношение сторон : 16:9Режим частоты кадров : ПостоянныйЧастота кадров : 23,976 кадра/секЦветовое пространство : YUVСубдискретизация насыщенности : 4:2:0Битовая глубина : 10 битТип развёртки : ПрогрессивнаяБит/(Пиксели*Кадры) : 0.102Размер потока : 389 Мбайт (88%)Заголовок : Lance N` Masques ep.01 «He`s a Real Hero»Библиотека кодирования : x264 core 148 r2579 73ae2d1Настройки программы : cabac=1 / ref=9 / deblock=1:-2:-2 / analyse=0x3:0x113 / me=umh / subme=9 / psy=1 / psy_rd=1.00:0.00 / mixed_ref=1 / me_range=32 / chroma_me=1 / trellis=2 / 8x8dct=1 / cqm=0 / deadzone=21,11 / fast_pskip=1 / chroma_qp_offset=-2 / threads=6 / lookahead_threads=1 / sliced_threads=0 / nr=0 / decimate=1 / interlaced=0 / bluray_compat=0 / constrained_intra=0 / bframes=9 / b_pyramid=2 / b_adapt=2 / b_bias=0 / direct=1 / weightb=1 / open_gop=0 / weightp=2 / keyint=240 / keyint_min=23 / scenecut=40 / intra_refresh=0 / rc=crf / mbtree=0 / crf=15.8 / qcomp=0.72 / qpmin=0 / qpmax=81 / qpstep=4 / ip_ratio=1.40 / pb_ratio=1.30 / aq=1:0.85Язык : JapaneseDefault : ДаForced : НетОсновные цвета : BT.709Характеристики трансфера : BT.709Коэффициенты матрицы : BT.709

АудиоИдентификатор : 2Формат : VorbisПараметр Floor формата : 1Идентификатор кодека : A_VORBISПродолжительность : 24 м.Вид битрейта : ПеременныйБитрейт : 256 Кбит/секКаналы : 2 каналаЧастота : 48,0 КГцМетод сжатия : С потерямиРазмер потока : 44,3 Мбайт (10%)Библиотека кодирования : aoTuV 20110424 (UTC 2011-04-24)Язык : JapaneseDefault : ДаForced : Нет

Меню00:00:00.000 : en:Prologue00:01:48.024 : en:Opening00:03:17.989 : en:Part A00:11:18.969 : en:Part B00:22:09.953 : en:Ending00:23:39.960 : en:Preview
Отличия:

[url]...5099942[/url] - MERDOK BDRip
01.He`s a Real Hero
02. Are You Prepared?
</div>
</div>

Трекер:  [ 27-Дек-2015 17:30 ]

  

Скачать .torrent

Размер .torrent файла 11 KB


Размер: 1.06 GB
Хэш (hash) релиза: 512aff71535b42838fc9070d57474d86ac237aa6
Подписка на обновления:

Торренты, похожие на Копье и маски Lance N Masques скачать торрент

Форум Название Автор Размер S L Добавлен
Аниме | HD Rips ·· Копьё и Маски / Lance N' Masques (Исигуро Кёхэй) [TV] [12 из 12] [Без хардсаба] [JAP+SUB] [2015 г., приключения, фэнтези, BDRip] [1080p] Galfimbul 2387445810222.23 GB 0 0 1467082040

05:47

28-Июн-16

Аниме | HD Rips ·· Копье и маски / Lance N' Masques (Исигуро Кёхэй) [TV] [12 из 12] [Без хардсаба] [JAP+SUB] [2015 г., приключения, фэнтези, экшн HDTVRip] [720p] Galfimbul 45785510104.26 GB 0 0 1454806589

03:56

7-Фев-16

Аниме | HD Rips ·· Копье и маски / Lance N' Masques (Исигуро Кёхэй) [TV] [10 из 12] [Без хардсаба] [JAP+SUB] [2015 г., приключения, фэнтези, экшн HDTVRip] [720p] Galfimbul 38276002103.56 GB 0 0 1451749241

18:40

2-Янв-16

Аниме | HD Rips ·· Копье и маски / Lance N' Masques (Исигуро Кёхэй) [TV] [2 из 12] [Без хардсаба] [JAP+SUB] [2015 г., приключения, фэнтези, экшн BDRip] [720p] Galfimbul 11426764951.06 GB 0 0 1451238774

20:52

27-Дек-15

Аниме | HD Rips ·· Копье и маски / Lance N' Masques (Ёсимура Ай) [TV] [7 из 12] [Без хардсаба] [JAP+SUB] [2015 г., приключения, фэнтези, экшн HDTVRip] [720p] Galfimbul 25490740182.37 GB 0 0 1448883129

14:32

30-Ноя-15

Аниме | HD Rips ·· Копье и маски / Lance N' Masques (Ёсимура Ай) [TV] [Без хардсаба] [5 из 12] [JAP+SUB] [2015 г., приключения, фэнтези, экшн HDTVRip] [720p] Galfimbul 18226958861.7 GB 0 0 1448371779

16:29

24-Ноя-15

Аниме | HD Rips ·· Копье и маски / Lance N' Masques (Ёсимура Ай) [TV] [Без хардсаба] [4 из 12] [JAP+SUB] [2015 г., приключения, фэнтези, экшн HDTVRip] [720p] Galfimbul 14620089321.36 GB 0 0 1446543130

12:32

3-Ноя-15

Аниме | HD Rips ·· Копье и маски / Lance N' Masques (Ёсимура Ай) [TV] [Без хардсаба] [4 из 12] [JAP+SUB] [2015 г., приключения, фэнтези, экшн HDTVRip] [720p] Galfimbul 14618444571.36 GB 0 0 1446541089

11:58

3-Ноя-15

Аниме | HD Rips ·· Копье и маски / Lance N' Masques (Ёсимура Ай) [TV] [Без хардсаба] [1 из 12] [JAP+SUB] [2015 г., приключения, фэнтези, экшн HDTVRip] [720p] Galfimbul 342366057327 MB 0 0 1445202832

00:13

19-Окт-15

Еще никто не оставлял запись к записи скачать торрент Копье и маски Lance N Masques . Будь первым!

!Обратная связь