Kokuriko-zaka Kara torrent

, , - AdBlock. #!


68.95 GB   |    :  1 10    |    .torrent :  23    |   
1  
   
...
 

Galfimbul

avatar Galfimbul


[url=...5117796/] [/url][url=...4722800] [/url][url=...4612785] [/url][url=...4629918] [/url][url=...3690943] [/url][url=...4766434] [/url][url=...4651642] [/url][url=...4901371] [/url][url=...4178733] [/url][url=...4936128/] [/url][url=...4978082] [/url][url=...4851914] [/url][url=...4119317] [/url][url=...5043266] [/url][url=...5006347] [/url][url=...3875703] [/url][url=...4465304] [/url][url=...5071976/] [/url][url=...5135718/] [/url][url=...4989310] [/url][url=...4979621] [/url]Kokuriko-zaka Kara / コクリコ坂から / From Up on Poppy Hill
:
: 2011 .
: , ,
: Movie
: 92 .
: Goro Miyazaki
: Ghibli

: Blu-ray
:
: M2TS
: MPEG-4 AVC Video / 1920x1080 / 33587 kbps / 23,976 fps / 16:9 / High Profile 4.1
1: LPCM Audio / 2.0 / 48 kHz / 2304 kbps / 24-bit
2: DTS-HD Master Audio / 5.0 / 48 kHz / 3731 kbps / 24-bit (DTS Core: 5.0 / 48 kHz / 1509 kbps / 24-bit)
3: Dolby Digital Audio / 5.0 / 48 kHz / 256 kbps / DN -4dB
4: [ ()] DTS-HD High-Res Audio / 5.0 / 48 kHz / 2559 kbps / 24-bit (DTS Core: 5.0 / 48 kHz / 1509 kbps / 24-bit / DN -4dB)
5: [ ()] DTS Audio / 5.0 / 48 kHz / 1509 kbps / 24-bit
6: [. (, )] Dolby Digital Audio / 5.0 / 48 kHz / 448 kbps
1: ,
2: ,
3: , []
4: , [Advantage]
5: , [Dreamers Team]:
1963 , " " ("", . "Coquelicot" -), . " " . , . , , - , . , , . , , , .

. :
.
1980 ( , ).
, ( ), , .
" " ["Sayonara no Natsu"] , 1976 ( и ), .
" ", "Sukiyaki".
" " , .
. , ( " ", , , ). , 2011- . , .. "-1", . - , , . , , . , 17 2011-. :
<ol class="post-ul">
"360 live" "nicofarre"
" "
(-)
(-)
</ol>
:
<ol class="post-ul">
:
" " (" ")
" " (-)


( TFloater; , "" anna_werish)
</ol>

Hayao Miyazaki to Ghibli Bijutsukan / 宮崎駿とジブリ美術館 / Hayao Miyazaki and the Ghibli Museum
:
: 2005 .
:
: Movie
: 63 .
: Juichi Sato
: Ghibli

: Blu-ray
:
: M2TS
: MPEG-2 Video / 720x480 / 6600 kbps / 29.970 fps / 16:9
1: Dolby Digital Audio / 2.0 / 48 kHz / 384 kbps / DN -4dB
1: ,
2: ,
3: , [BurniN∙SnikerS]:
2001 "", , . , , .

. :
Blu-ray, DVD.

:
<ol class="post-ul">
"" :
:
:
" " (-)


( BurniN∙SnikerS TFloater; , , , -, , , )
</ol>
-
:
[url=...mode=viewprofile&u=3380543]TFloater[/url] "", ""
Kage Project: ո, Tousaka Jun, Apostol, Evafan "300 "
umi_no_inu Miyazaki_ru "" "",
crazy_gringo Blu-ray "", [url=...mode=viewprofile&u=20663981]Reigar.[/url] "", [url=...mode=viewprofile&u=13862773]Hydrogenium[/url] .
" " ( ). , . .
" " DVD . .

Sonic Scenarist 5.7.2. Sony PS3, PowerDVD 12, TMT5 Toshiba BDX1200.
Disc Title: Kokuriko-zaka Kara Disc 1Disc Size: 49 869 076 278 bytesProtection: AACSBD-Java: NoBDInfo: 0.5.8

Notes:

BDINFO HOME: Cinema Squid http://www.cinemasquid.com/blu-ray/tools/bdinfo

INCLUDES FORUMS REPORT FOR: AVS Forum Blu-ray Audio and Video Specifications Thread http://www.avsforum.com/avs-vb/showthread.php?t=1155731

********************PLAYLIST: 00000.MPLS********************

<--- BEGIN FORUMS PASTE --->

Total Video
Title Codec Length Movie Size Disc Size Bitrate Bitrate Main Audio Track Secondary Audio Track
----- ------ ------- -------------- -------------- ------- ------- ------------------ ---------------------
00000.MPLS AVC 1:30:51 32178548736 49869076278 47.22 33.59 LPCM 2.0 2304Kbps (48kHz/24-bit) DTS-HD Master 5.0 3731Kbps (48kHz/24-bit)
DISC INFO:

Disc Title: Kokuriko-zaka Kara Disc 1
Disc Size: 49869076278 bytes
Protection: AACS
BD-Java: No
BDInfo: 0.5.8

PLAYLIST REPORT:

Name: 00000.MPLS
Length: 1:30:51.362 (h:m:s.ms)
Size: 32178548736 bytes
Total Bitrate: 47.22 Mbps

VIDEO:

Codec Bitrate Description
----- ------- -----------
MPEG-4 AVC Video 33587 kbps 1080p / 23.976 fps / 16:9 / High Profile 4.1

AUDIO:

Codec Language Bitrate Description
----- -------- ------- -----------
LPCM Audio Japanese 2304 kbps 2.0 / 48 kHz / 2304 kbps / 24-bit
DTS-HD Master Audio Japanese 3731 kbps 5.0 / 48 kHz / 3731 kbps / 24-bit (DTS Core: 5.0 / 48 kHz / 1509 kbps / 24-bit)
Dolby Digital Audio English 256 kbps 5.0 / 48 kHz / 256 kbps / DN -4dB
DTS-HD High-Res Audio Russian 2559 kbps 5.0 / 48 kHz / 2559 kbps / 24-bit (DTS Core: 5.0 / 48 kHz / 1509 kbps / 24-bit / DN -4dB)
DTS Audio Russian 1509 kbps 5.0 / 48 kHz / 1509 kbps / 24-bit
Dolby Digital Audio Russian 448 kbps 5.0 / 48 kHz / 448 kbps

SUBTITLES:

Codec Language Bitrate Description
----- -------- ------- -----------
Presentation Graphics Japanese 24.266 kbps
Presentation Graphics English 29.102 kbps
Presentation Graphics Russian 22.929 kbps
Presentation Graphics Russian 17.480 kbps
Presentation Graphics Russian 27.753 kbps

FILES:

Name Time In Length Size Total Bitrate
---- ------- ------ ---- -------------
00000.M2TS 0:00:00.000 1:30:51.362 32178548736 47223

CHAPTERS:

Number Time In Length Avg Video Rate Max 1-Sec Rate Max 1-Sec Time Max 5-Sec Rate Max 5-Sec Time Max 10Sec Rate Max 10Sec Time Avg Frame Size Max Frame Size Max Frame Time
------ ------- ------ -------------- -------------- -------------- -------------- -------------- -------------- -------------- -------------- -------------- --------------
1 0:00:00.000 0:03:05.393 31893 kbps 55240 kbps 00:00:13.388 39033 kbps 00:02:41.244 36172 kbps 00:02:36.197 166237 bytes 971102 bytes 00:02:16.678
2 0:03:05.393 0:04:50.748 33964 kbps 48281 kbps 00:04:33.731 39232 kbps 00:06:52.662 36862 kbps 00:03:54.108 177074 bytes 952873 bytes 00:07:10.138
3 0:07:56.142 0:03:58.404 33952 kbps 56612 kbps 00:09:16.764 39224 kbps 00:08:46.400 36578 kbps 00:08:44.649 177011 bytes 980466 bytes 00:10:35.426
4 0:11:54.547 0:03:38.551 33782 kbps 56728 kbps 00:12:17.027 38888 kbps 00:12:33.043 36725 kbps 00:14:49.805 176125 bytes 958392 bytes 00:15:24.423
5 0:15:33.098 0:02:24.102 33508 kbps 48563 kbps 00:16:56.432 38785 kbps 00:15:59.083 36075 kbps 00:16:00.834 174693 bytes 934928 bytes 00:17:50.444
6 0:17:57.201 0:04:21.094 33894 kbps 54207 kbps 00:22:11.204 39091 kbps 00:21:01.301 36548 kbps 00:20:38.320 176708 bytes 964323 bytes 00:22:02.321
7 0:22:18.295 0:03:56.903 33675 kbps 54039 kbps 00:22:21.006 39216 kbps 00:25:04.211 36624 kbps 00:25:04.794 175563 bytes 914244 bytes 00:25:17.349
8 0:26:15.198 0:03:58.696 33856 kbps 55449 kbps 00:29:27.432 39614 kbps 00:27:11.671 36394 kbps 00:26:43.310 176510 bytes 933218 bytes 00:27:49.209
9 0:30:13.895 0:04:51.165 33739 kbps 49537 kbps 00:30:48.471 39553 kbps 00:30:28.993 36302 kbps 00:32:50.510 175898 bytes 983252 bytes 00:30:32.497
10 0:35:05.061 0:03:25.914 33859 kbps 49872 kbps 00:38:25.720 39741 kbps 00:37:27.787 36584 kbps 00:35:49.564 176526 bytes 973697 bytes 00:35:28.459
11 0:38:30.975 0:03:35.381 33414 kbps 52780 kbps 00:42:03.854 38493 kbps 00:39:40.169 36429 kbps 00:40:33.180 174207 bytes 928342 bytes 00:40:34.056
12 0:42:06.357 0:04:05.161 33904 kbps 50074 kbps 00:44:03.057 39628 kbps 00:42:39.598 37020 kbps 00:42:59.702 176761 bytes 944418 bytes 00:45:43.574
13 0:46:11.518 0:04:12.877 33562 kbps 52373 kbps 00:46:24.615 38879 kbps 00:48:57.517 36315 kbps 00:46:39.880 174976 bytes 944112 bytes 00:49:28.632
14 0:50:24.396 0:03:46.643 33538 kbps 50207 kbps 00:54:02.238 39100 kbps 00:51:54.778 36460 kbps 00:52:14.506 174852 bytes 955176 bytes 00:51:26.083
15 0:54:11.039 0:03:49.812 33010 kbps 49248 kbps 00:54:50.787 38517 kbps 00:54:18.964 37089 kbps 00:55:42.005 172098 bytes 791329 bytes 00:57:07.173
16 0:58:00.852 0:05:59.484 33815 kbps 55330 kbps 01:03:57.917 39536 kbps 01:02:21.988 37125 kbps 01:01:46.619 176296 bytes 959318 bytes 01:02:13.563
17 1:04:00.336 0:03:49.270 33864 kbps 55192 kbps 01:06:40.246 39154 kbps 01:04:44.005 36410 kbps 01:06:17.932 176553 bytes 927870 bytes 01:04:02.296
18 1:07:49.607 0:03:59.280 33805 kbps 53935 kbps 01:08:57.842 39023 kbps 01:09:58.903 36747 kbps 01:08:41.867 176245 bytes 922657 bytes 01:08:51.168
19 1:11:48.887 0:05:51.476 33464 kbps 51834 kbps 01:17:37.944 39146 kbps 01:12:21.879 36626 kbps 01:13:12.513 174465 bytes 852702 bytes 01:14:41.351
20 1:17:40.364 0:05:24.574 34099 kbps 46888 kbps 01:22:50.382 38501 kbps 01:22:05.670 36930 kbps 01:19:02.779 177775 bytes 951991 bytes 01:18:19.778
21 1:23:04.938 0:05:49.307 33564 kbps 56313 kbps 01:28:50.074 39602 kbps 01:24:14.966 36875 kbps 01:23:06.439 174986 bytes 945304 bytes 01:23:31.756
22 1:28:54.245 0:01:56.115 30598 kbps 54995 kbps 01:28:54.287 37285 kbps 01:29:02.587 35937 kbps 01:29:19.020 159523 bytes 969113 bytes 01:30:26.212
23 1:30:50.361 0:00:01.001 187 kbps 0 kbps 00:00:00.000 0 kbps 00:00:00.000 0 kbps 00:00:00.000 1019 bytes 1470 bytes 01:30:50.403

STREAM DIAGNOSTICS:

File PID Type Codec Language Seconds Bitrate Bytes Packets
---- --- ---- ----- -------- -------------- -------------- ------------- -----
00000.M2TS 4113 (0x1011) 0x1B AVC 5451.237 33588 22887051933 124462898
00000.M2TS 4352 (0x1100) 0x80 LPCM jpn (Japanese) 5451.237 2310 1574355656 8722192
00000.M2TS 4353 (0x1101) 0x86 DTS-HD MA jpn (Japanese) 5451.237 3731 2542612604 14667445
00000.M2TS 4354 (0x1102) 0x81 AC3 eng (English) 5451.237 255 174024704 1019676
00000.M2TS 4355 (0x1103) 0x85 DTS-HD HR rus (Russian) 5451.237 2560 1744098392 10223320
00000.M2TS 4356 (0x1104) 0x82 DTS rus (Russian) 5451.237 1509 1028264792 6132792
00000.M2TS 4357 (0x1105) 0x81 AC3 rus (Russian) 5451.237 448 305277952 1703560
00000.M2TS 4608 (0x1200) 0x90 PGS jpn (Japanese) 5451.237 24 16535254 98384
00000.M2TS 4609 (0x1201) 0x90 PGS eng (English) 5451.237 29 19830731 113903
00000.M2TS 4610 (0x1202) 0x90 PGS rus (Russian) 5451.237 23 15624369 91015
00000.M2TS 4611 (0x1203) 0x90 PGS rus (Russian) 5451.237 17 11910912 69647
00000.M2TS 4612 (0x1204) 0x90 PGS rus (Russian) 5451.237 28 18911719 109073
<pre>
<---- END FORUMS PASTE ---->

QUICK SUMMARY:

Disc Title: Kokuriko-zaka Kara Disc 1Disc Size: 49 869 076 278 bytesProtection: AACSBD-Java: NoPlaylist: 00000.MPLSSize: 32 178 548 736 bytesLength: 1:30:51.362Total Bitrate: 47.22 MbpsVideo: MPEG-4 AVC Video / 33587 kbps / 1080p / 23.976 fps / 16:9 / High Profile 4.1Audio: Japanese / LPCM Audio / 2.0 / 48 kHz / 2304 kbps / 24-bitAudio: Japanese / DTS-HD Master Audio / 5.0 / 48 kHz / 3731 kbps / 24-bit (DTS Core: 5.0 / 48 kHz / 1509 kbps / 24-bit)Audio: English / Dolby Digital Audio / 5.0 / 48 kHz / 256 kbps / DN -4dBAudio: Russian / DTS-HD High-Res Audio / 5.0 / 48 kHz / 2559 kbps / 24-bit (DTS Core: 5.0 / 48 kHz / 1509 kbps / 24-bit / DN -4dB)Audio: Russian / DTS Audio / 5.0 / 48 kHz / 1509 kbps / 24-bitAudio: Russian / Dolby Digital Audio / 5.0 / 48 kHz / 448 kbpsSubtitle: Japanese / 24.266 kbpsSubtitle: English / 29.102 kbpsSubtitle: Russian / 22.929 kbpsSubtitle: Russian / 17.480 kbpsSubtitle: Russian / 27.753 kbps
</pre>
Disc Title: Kokuriko-zaka Kara Disc 2Disc Size: 24 164 504 620 bytesProtection: AACSBD-Java: NoBDInfo: 0.5.8

Notes:

BDINFO HOME: Cinema Squid http://www.cinemasquid.com/blu-ray/tools/bdinfo

INCLUDES FORUMS REPORT FOR: AVS Forum Blu-ray Audio and Video Specifications Thread http://www.avsforum.com/avs-vb/showthread.php?t=1155731

********************PLAYLIST: 00001.MPLS********************

<--- BEGIN FORUMS PASTE --->

Total Video
Title Codec Length Movie Size Disc Size Bitrate Bitrate Main Audio Track Secondary Audio Track
----- ------ ------- -------------- -------------- ------- ------- ------------------ ---------------------
00001.MPLS MPEG-2 1:02:46 3503462400 24164504620 7.44 6.60 DD AC3 2.0 384Kbps
DISC INFO:

Disc Title: Kokuriko-zaka Kara Disc 2
Disc Size: 24164504620 bytes
Protection: AACS
BD-Java: No
BDInfo: 0.5.8

PLAYLIST REPORT:

Name: 00001.MPLS
Length: 1:02:46.362 (h:m:s.ms)
Size: 3503462400 bytes
Total Bitrate: 7.44 Mbps

VIDEO:

Codec Bitrate Description
----- ------- -----------
MPEG-2 Video 6600 kbps 480i / 29.970 fps / 16:9

AUDIO:

Codec Language Bitrate Description
----- -------- ------- -----------
Dolby Digital Audio Japanese 384 kbps 2.0 / 48 kHz / 384 kbps / DN -4dB

SUBTITLES:

Codec Language Bitrate Description
----- -------- ------- -----------
Presentation Graphics Japanese 11.467 kbps
Presentation Graphics English 10.687 kbps
Presentation Graphics Russian 15.176 kbps

FILES:

Name Time In Length Size Total Bitrate
---- ------- ------ ---- -------------
00002.M2TS 0:00:00.000 1:02:46.362 3503462400 7442

CHAPTERS:

Number Time In Length Avg Video Rate Max 1-Sec Rate Max 1-Sec Time Max 5-Sec Rate Max 5-Sec Time Max 10Sec Rate Max 10Sec Time Avg Frame Size Max Frame Size Max Frame Time
------ ------- ------ -------------- -------------- -------------- -------------- -------------- -------------- -------------- -------------- -------------- --------------
1 0:00:00.000 0:06:53.579 7293 kbps 9815 kbps 00:01:38.431 9067 kbps 00:01:38.431 8952 kbps 00:01:38.431 30416 bytes 158544 bytes 00:04:41.914
2 0:06:53.579 0:09:03.843 6340 kbps 9514 kbps 00:15:15.447 9019 kbps 00:13:12.391 8954 kbps 00:13:18.931 26443 bytes 208452 bytes 00:12:16.936
3 0:15:57.423 0:02:07.360 8611 kbps 9484 kbps 00:17:29.081 9028 kbps 00:17:58.510 8938 kbps 00:15:58.324 35917 bytes 131168 bytes 00:17:39.992
4 0:18:04.783 0:03:00.146 6888 kbps 9232 kbps 00:19:27.232 8983 kbps 00:19:22.928 8730 kbps 00:20:24.656 28728 bytes 143724 bytes 00:21:03.495
5 0:21:04.930 0:06:07.600 5801 kbps 9765 kbps 00:23:54.533 9070 kbps 00:23:52.631 8945 kbps 00:23:54.166 24196 bytes 181608 bytes 00:23:42.888
6 0:27:12.530 0:07:20.640 6788 kbps 9742 kbps 00:33:57.468 9049 kbps 00:33:53.931 8961 kbps 00:32:25.843 28311 bytes 169584 bytes 00:29:45.450
7 0:34:33.171 0:06:24.884 7154 kbps 9507 kbps 00:36:50.174 9101 kbps 00:36:49.173 8968 kbps 00:36:48.272 29839 bytes 159372 bytes 00:37:54.338
8 0:40:58.055 0:04:00.773 5648 kbps 9463 kbps 00:42:31.615 8953 kbps 00:42:31.615 8504 kbps 00:42:27.511 23557 bytes 180888 bytes 00:44:37.341
9 0:44:58.829 0:03:17.630 5785 kbps 9137 kbps 00:47:49.666 8959 kbps 00:48:00.410 8923 kbps 00:48:00.010 24128 bytes 113832 bytes 00:47:35.185
10 0:48:16.460 0:05:04.037 5438 kbps 9574 kbps 00:49:03.106 8954 kbps 00:49:03.006 8886 kbps 00:49:03.006 22681 bytes 128408 bytes 00:53:20.497
11 0:53:20.497 0:06:43.269 7721 kbps 9639 kbps 00:58:49.759 9076 kbps 00:58:47.423 8935 kbps 00:56:41.664 32202 bytes 158136 bytes 00:55:04.067
12 1:00:03.766 0:02:41.261 5636 kbps 9146 kbps 01:01:29.385 8929 kbps 01:01:35.425 8867 kbps 01:01:32.789 23506 bytes 109212 bytes 01:00:36.799
13 1:02:45.027 0:00:01.334 177 kbps 209 kbps 01:02:45.328 0 kbps 00:00:00.000 0 kbps 00:00:00.000 758 bytes 7676 bytes 01:02:45.528

STREAM DIAGNOSTICS:

File PID Type Codec Language Seconds Bitrate Bytes Packets
---- --- ---- ----- -------- -------------- -------------- ------------- -----
00002.M2TS 4113 (0x1011) 0x02 MPEG-2 3766.296 6600 3107267365 16953050
00002.M2TS 4352 (0x1100) 0x81 AC3 jpn (Japanese) 3766.296 384 180784128 1059282
00002.M2TS 4608 (0x1200) 0x90 PGS jpn (Japanese) 3766.296 11 5398442 33812
00002.M2TS 4609 (0x1201) 0x90 PGS eng (English) 3766.296 11 5031356 30953
00002.M2TS 4610 (0x1202) 0x90 PGS rus (Russian) 3766.296 15 7144747 43890
<pre>
<---- END FORUMS PASTE ---->

QUICK SUMMARY:

Disc Title: Kokuriko-zaka Kara Disc 2Disc Size: 24 164 504 620 bytesProtection: AACSBD-Java: NoPlaylist: 00001.MPLSSize: 3 503 462 400 bytesLength: 1:02:46.362Total Bitrate: 7.44 MbpsVideo: MPEG-2 Video / 6600 kbps / 480i / 29.970 fps / 16:9Audio: Japanese / Dolby Digital Audio / 2.0 / 48 kHz / 384 kbps / DN -4dBSubtitle: Japanese / 11.467 kbpsSubtitle: English / 10.687 kbpsSubtitle: Russian / 15.176 kbps

********************PLAYLIST: 00002.MPLS********************

<--- BEGIN FORUMS PASTE --->
</pre>
Total Video
Title Codec Length Movie Size Disc Size Bitrate Bitrate Main Audio Track Secondary Audio Track
----- ------ ------- -------------- -------------- ------- ------- ------------------ ---------------------
00002.MPLS MPEG-2 0:15:33 863047680 24164504620 7.40 6.60 DD AC3 2.0 384Kbps
DISC INFO:

Disc Title: Kokuriko-zaka Kara Disc 2
Disc Size: 24164504620 bytes
Protection: AACS
BD-Java: No
BDInfo: 0.5.8

PLAYLIST REPORT:

Name: 00002.MPLS
Length: 0:15:33.265 (h:m:s.ms)
Size: 863047680 bytes
Total Bitrate: 7.40 Mbps

VIDEO:

Codec Bitrate Description
----- ------- -----------
MPEG-2 Video 6601 kbps 480i / 29.970 fps / 4:3

AUDIO:

Codec Language Bitrate Description
----- -------- ------- -----------
Dolby Digital Audio Russian 384 kbps 2.0 / 48 kHz / 384 kbps / DN -4dB

FILES:

Name Time In Length Size Total Bitrate
---- ------- ------ ---- -------------
00003.M2TS 0:00:00.000 0:15:33.265 863047680 7398

CHAPTERS:

Number Time In Length Avg Video Rate Max 1-Sec Rate Max 1-Sec Time Max 5-Sec Rate Max 5-Sec Time Max 10Sec Rate Max 10Sec Time Avg Frame Size Max Frame Size Max Frame Time
------ ------- ------ -------------- -------------- -------------- -------------- -------------- -------------- -------------- -------------- -------------- --------------
1 0:00:00.000 0:03:05.985 6528 kbps 9197 kbps 00:02:12.632 8976 kbps 00:02:12.499 8451 kbps 00:00:37.837 27221 bytes 110228 bytes 00:01:57.183
2 0:03:05.985 0:03:37.217 6684 kbps 9445 kbps 00:04:21.661 9044 kbps 00:04:18.524 8824 kbps 00:06:03.229 27879 bytes 136936 bytes 00:05:56.222
3 0:06:43.202 0:02:13.700 6245 kbps 9149 kbps 00:08:49.962 8259 kbps 00:08:51.898 7708 kbps 00:08:04.851 26045 bytes 109548 bytes 00:06:59.719
4 0:08:56.903 0:02:47.734 6765 kbps 8948 kbps 00:10:45.478 8613 kbps 00:10:34.133 8371 kbps 00:10:29.195 28214 bytes 104148 bytes 00:10:40.006
5 0:11:44.637 0:02:15.668 7275 kbps 9407 kbps 00:13:20.566 8990 kbps 00:12:16.001 8942 kbps 00:12:14.066 30342 bytes 137804 bytes 00:13:12.091
6 0:14:00.306 0:01:32.959 5784 kbps 8972 kbps 00:14:51.523 8298 kbps 00:14:50.923 7726 kbps 00:14:27.166 24131 bytes 115632 bytes 00:15:12.511

STREAM DIAGNOSTICS:

File PID Type Codec Language Seconds Bitrate Bytes Packets
---- --- ---- ----- -------- -------------- -------------- ------------- -----
00003.M2TS 4113 (0x1011) 0x02 MPEG-2 933.199 6601 770018256 4201264
00003.M2TS 4352 (0x1100) 0x81 AC3 rus (Russian) 933.199 384 44795904 262476
<pre>
<---- END FORUMS PASTE ---->

QUICK SUMMARY:

Disc Title: Kokuriko-zaka Kara Disc 2Disc Size: 24 164 504 620 bytesProtection: AACSBD-Java: NoPlaylist: 00002.MPLSSize: 863 047 680 bytesLength: 0:15:33.265Total Bitrate: 7.40 MbpsVideo: MPEG-2 Video / 6601 kbps / 480i / 29.970 fps / 4:3Audio: Russian / Dolby Digital Audio / 2.0 / 48 kHz / 384 kbps / DN -4dB

********************PLAYLIST: 00003.MPLS********************

<--- BEGIN FORUMS PASTE --->
</pre>
Total Video
Title Codec Length Movie Size Disc Size Bitrate Bitrate Main Audio Track Secondary Audio Track
----- ------ ------- -------------- -------------- ------- ------- ------------------ ---------------------
00003.MPLS MPEG-2 0:26:02 1448497152 24164504620 7.42 6.59 DD AC3 2.0 384Kbps
DISC INFO:

Disc Title: Kokuriko-zaka Kara Disc 2
Disc Size: 24164504620 bytes
Protection: AACS
BD-Java: No
BDInfo: 0.5.8

PLAYLIST REPORT:

Name: 00003.MPLS
Length: 0:26:02.294 (h:m:s.ms)
Size: 1448497152 bytes
Total Bitrate: 7.42 Mbps

VIDEO:

Codec Bitrate Description
----- ------- -----------
MPEG-2 Video 6594 kbps 480i / 29.970 fps / 16:9

AUDIO:

Codec Language Bitrate Description
----- -------- ------- -----------
Dolby Digital Audio Japanese 384 kbps 2.0 / 48 kHz / 384 kbps / DN -4dB

SUBTITLES:

Codec Language Bitrate Description
----- -------- ------- -----------
Presentation Graphics Japanese 10.536 kbps
Presentation Graphics Russian 11.506 kbps

FILES:

Name Time In Length Size Total Bitrate
---- ------- ------ ---- -------------
00004.M2TS 0:00:00.000 0:26:02.294 1448497152 7417

CHAPTERS:

Number Time In Length Avg Video Rate Max 1-Sec Rate Max 1-Sec Time Max 5-Sec Rate Max 5-Sec Time Max 10Sec Rate Max 10Sec Time Avg Frame Size Max Frame Size Max Frame Time
------ ------- ------ -------------- -------------- -------------- -------------- -------------- -------------- -------------- -------------- -------------- --------------
1 0:00:00.000 0:02:29.449 6563 kbps 9163 kbps 00:00:11.211 9012 kbps 00:00:08.775 8957 kbps 00:00:07.974 27367 bytes 172928 bytes 00:02:24.544
2 0:02:29.449 0:03:45.592 6802 kbps 9311 kbps 00:04:45.485 9008 kbps 00:04:41.481 8882 kbps 00:05:36.836 28369 bytes 148084 bytes 00:02:36.456
3 0:06:15.041 0:03:02.482 6892 kbps 9425 kbps 00:08:54.166 8991 kbps 00:07:34.454 8924 kbps 00:07:47.200 28744 bytes 161424 bytes 00:07:40.259
4 0:09:17.523 0:01:41.801 6509 kbps 9028 kbps 00:09:17.924 8554 kbps 00:09:17.523 7027 kbps 00:09:17.523 27147 bytes 158312 bytes 00:09:43.449
5 0:10:59.325 0:02:57.977 6697 kbps 9088 kbps 00:11:01.093 8975 kbps 00:11:01.093 8927 kbps 00:10:59.692 27930 bytes 116388 bytes 00:10:59.825
6 0:13:57.303 0:04:36.909 6961 kbps 9105 kbps 00:14:06.979 8947 kbps 00:14:05.511 8932 kbps 00:14:00.506 29034 bytes 108576 bytes 00:14:07.813
7 0:18:34.213 0:02:48.701 6499 kbps 9102 kbps 00:18:36.415 8795 kbps 00:18:34.213 7634 kbps 00:18:34.213 27107 bytes 134340 bytes 00:18:40.719
8 0:21:22.914 0:04:39.379 5906 kbps 9150 kbps 00:22:07.926 8638 kbps 00:21:52.911 7707 kbps 00:21:51.877 24636 bytes 141720 bytes 00:23:56.368

STREAM DIAGNOSTICS:

File PID Type Codec Language Seconds Bitrate Bytes Packets
---- --- ---- ----- -------- -------------- -------------- ------------- -----
00004.M2TS 4113 (0x1011) 0x02 MPEG-2 1562.227 6594 1287664325 7025512
00004.M2TS 4352 (0x1100) 0x81 AC3 jpn (Japanese) 1562.227 384 74989056 439389
00004.M2TS 4608 (0x1200) 0x90 PGS jpn (Japanese) 1562.227 11 2057627 13058
00004.M2TS 4609 (0x1201) 0x90 PGS rus (Russian) 1562.227 12 2247016 13933
<pre>
<---- END FORUMS PASTE ---->

QUICK SUMMARY:

Disc Title: Kokuriko-zaka Kara Disc 2Disc Size: 24 164 504 620 bytesProtection: AACSBD-Java: NoPlaylist: 00003.MPLSSize: 1 448 497 152 bytesLength: 0:26:02.294Total Bitrate: 7.42 MbpsVideo: MPEG-2 Video / 6594 kbps / 480i / 29.970 fps / 16:9Audio: Japanese / Dolby Digital Audio / 2.0 / 48 kHz / 384 kbps / DN -4dBSubtitle: Japanese / 10.536 kbpsSubtitle: Russian / 11.506 kbps

********************PLAYLIST: 00004.MPLS********************

<--- BEGIN FORUMS PASTE --->
</pre>
Total Video
Title Codec Length Movie Size Disc Size Bitrate Bitrate Main Audio Track Secondary Audio Track
----- ------ ------- -------------- -------------- ------- ------- ------------------ ---------------------
00004.MPLS MPEG-2 0:25:43 1429831680 24164504620 7.41 6.60 DD AC3 2.0 384Kbps
DISC INFO:

Disc Title: Kokuriko-zaka Kara Disc 2
Disc Size: 24164504620 bytes
Protection: AACS
BD-Java: No
BDInfo: 0.5.8

PLAYLIST REPORT:

Name: 00004.MPLS
Length: 0:25:43.341 (h:m:s.ms)
Size: 1429831680 bytes
Total Bitrate: 7.41 Mbps

VIDEO:

Codec Bitrate Description
----- ------- -----------
MPEG-2 Video 6600 kbps 480i / 29.970 fps / 16:9

AUDIO:

Codec Language Bitrate Description
----- -------- ------- -----------
Dolby Digital Audio Japanese 384 kbps 2.0 / 48 kHz / 384 kbps / DN -4dB

SUBTITLES:

Codec Language Bitrate Description
----- -------- ------- -----------
Presentation Graphics Japanese 9.575 kbps
Presentation Graphics Russian 2.555 kbps

FILES:

Name Time In Length Size Total Bitrate
---- ------- ------ ---- -------------
00005.M2TS 0:00:00.000 0:25:43.341 1429831680 7412

CHAPTERS:

Number Time In Length Avg Video Rate Max 1-Sec Rate Max 1-Sec Time Max 5-Sec Rate Max 5-Sec Time Max 10Sec Rate Max 10Sec Time Avg Frame Size Max Frame Size Max Frame Time
------ ------- ------ -------------- -------------- -------------- -------------- -------------- -------------- -------------- -------------- -------------- --------------
1 0:00:00.000 0:03:50.730 6698 kbps 9216 kbps 00:02:16.336 8980 kbps 00:00:10.710 8563 kbps 00:00:07.974 27934 bytes 148884 bytes 00:00:24.958
2 0:03:50.730 0:04:12.819 6665 kbps 9258 kbps 00:04:09.082 9043 kbps 00:04:05.078 8328 kbps 00:04:01.307 27800 bytes 134980 bytes 00:06:41.033
3 0:08:03.549 0:01:40.200 7041 kbps 9144 kbps 00:08:28.040 8970 kbps 00:09:03.075 8343 kbps 00:08:59.071 29368 bytes 142640 bytes 00:09:18.090
4 0:09:43.749 0:01:28.655 6768 kbps 9051 kbps 00:09:46.919 8941 kbps 00:09:44.483 8343 kbps 00:09:43.749 28229 bytes 139652 bytes 00:10:04.103
5 0:11:12.405 0:04:18.091 6768 kbps 9237 kbps 00:13:39.852 8934 kbps 00:13:39.852 8077 kbps 00:13:36.715 28229 bytes 137980 bytes 00:15:30.496
6 0:15:30.496 0:02:33.186 6373 kbps 9000 kbps 00:16:32.725 8959 kbps 00:16:29.722 8182 kbps 00:16:27.920 26582 bytes 145204 bytes 00:16:08.934
7 0:18:03.682 0:04:42.248 6501 kbps 8961 kbps 00:18:27.773 7913 kbps 00:18:25.771 7538 kbps 00:18:49.094 27114 bytes 136036 bytes 00:18:11.857
8 0:22:45.931 0:02:57.410 6152 kbps 9679 kbps 00:23:45.257 9059 kbps 00:23:39.484 8936 kbps 00:23:36.181 25663 bytes 151028 bytes 00:25:01.199

STREAM DIAGNOSTICS:

File PID Type Codec Language Seconds Bitrate Bytes Packets
---- --- ---- ----- -------- -------------- -------------- ------------- -----
00005.M2TS 4113 (0x1011) 0x02 MPEG-2 1543.275 6600 1273196729 6946596
00005.M2TS 4352 (0x1100) 0x81 AC3 jpn (Japanese) 1543.275 384 74079744 434061
00005.M2TS 4608 (0x1200) 0x90 PGS jpn (Japanese) 1543.275 10 1847111 11831
00005.M2TS 4609 (0x1201) 0x90 PGS rus (Russian) 1543.275 3 493001 2806
<pre>
<---- END FORUMS PASTE ---->

QUICK SUMMARY:

Disc Title: Kokuriko-zaka Kara Disc 2Disc Size: 24 164 504 620 bytesProtection: AACSBD-Java: NoPlaylist: 00004.MPLSSize: 1 429 831 680 bytesLength: 0:25:43.341Total Bitrate: 7.41 MbpsVideo: MPEG-2 Video / 6600 kbps / 480i / 29.970 fps / 16:9Audio: Japanese / Dolby Digital Audio / 2.0 / 48 kHz / 384 kbps / DN -4dBSubtitle: Japanese / 9.575 kbpsSubtitle: Russian / 2.555 kbps

********************PLAYLIST: 00008.MPLS********************

<--- BEGIN FORUMS PASTE --->
</pre>
Total Video
Title Codec Length Movie Size Disc Size Bitrate Bitrate Main Audio Track Secondary Audio Track
----- ------ ------- -------------- -------------- ------- ------- ------------------ ---------------------
00008.MPLS AVC 0:17:37 5694640128 24164504620 43.08 39.31 LPCM 2.0 1536Kbps (48kHz/16-bit)
DISC INFO:

Disc Title: Kokuriko-zaka Kara Disc 2
Disc Size: 24164504620 bytes
Protection: AACS
BD-Java: No
BDInfo: 0.5.8

PLAYLIST REPORT:

Name: 00008.MPLS
Length: 0:17:37.556 (h:m:s.ms)
Size: 5694640128 bytes
Total Bitrate: 43.08 Mbps

VIDEO:

Codec Bitrate Description
----- ------- -----------
MPEG-4 AVC Video 39308 kbps 1080i / 29.970 fps / 16:9 / High Profile 4.1

AUDIO:

Codec Language Bitrate Description
----- -------- ------- -----------
LPCM Audio Japanese 1536 kbps 2.0 / 48 kHz / 1536 kbps / 16-bit

SUBTITLES:

Codec Language Bitrate Description
----- -------- ------- -----------
Presentation Graphics Russian 129.436 kbps

FILES:

Name Time In Length Size Total Bitrate
---- ------- ------ ---- -------------
00090.M2TS 0:00:00.000 0:17:37.556 5694640128 43078

CHAPTERS:

Number Time In Length Avg Video Rate Max 1-Sec Rate Max 1-Sec Time Max 5-Sec Rate Max 5-Sec Time Max 10Sec Rate Max 10Sec Time Avg Frame Size Max Frame Size Max Frame Time
------ ------- ------ -------------- -------------- -------------- -------------- -------------- -------------- -------------- -------------- -------------- --------------
1 0:00:00.000 0:02:23.076 39173 kbps 41272 kbps 00:00:00.033 39527 kbps 00:00:00.033 39361 kbps 00:00:00.000 163347 bytes 323920 bytes 00:02:22.108
2 0:02:23.076 0:02:46.699 39384 kbps 40942 kbps 00:03:39.819 39826 kbps 00:02:52.405 39632 kbps 00:03:04.717 164266 bytes 323501 bytes 00:02:49.102
3 0:05:09.776 0:02:00.920 39221 kbps 40698 kbps 00:07:08.795 39518 kbps 00:07:05.691 39384 kbps 00:06:24.150 163585 bytes 321719 bytes 00:07:07.827
4 0:07:10.696 0:01:16.776 39436 kbps 40867 kbps 00:07:35.288 39739 kbps 00:07:49.302 39607 kbps 00:07:26.145 164482 bytes 324388 bytes 00:07:18.704
5 0:08:27.473 0:02:21.841 39486 kbps 41330 kbps 00:09:39.011 39837 kbps 00:09:35.107 39691 kbps 00:08:35.781 164689 bytes 328380 bytes 00:09:16.522
6 0:10:49.315 0:03:21.067 39242 kbps 41220 kbps 00:12:38.691 39719 kbps 00:11:37.997 39510 kbps 00:11:37.930 163672 bytes 324970 bytes 00:11:06.332
7 0:14:10.382 0:00:37.270 39358 kbps 41010 kbps 00:14:45.985 39777 kbps 00:14:19.425 39638 kbps 00:14:10.449 164154 bytes 307217 bytes 00:14:17.990
8 0:14:47.653 0:01:35.895 39236 kbps 41285 kbps 00:15:06.272 39623 kbps 00:16:18.010 39422 kbps 00:16:13.038 163645 bytes 332351 bytes 00:16:17.076
9 0:16:23.549 0:01:13.006 39315 kbps 54002 kbps 00:17:17.903 42692 kbps 00:17:13.899 41092 kbps 00:17:08.894 163977 bytes 577131 bytes 00:17:18.604
10 0:17:36.555 0:00:01.000 38628 kbps 0 kbps 00:00:00.000 0 kbps 00:00:00.000 0 kbps 00:00:00.000 166665 bytes 166666 bytes 00:17:36.588

STREAM DIAGNOSTICS:

File PID Type Codec Language Seconds Bitrate Bytes Packets
---- --- ---- ----- -------- -------------- -------------- ------------- -----
00090.M2TS 4113 (0x1011) 0x1B AVC 1057.423 39312 5196240320 28258518
00090.M2TS 4352 (0x1100) 0x80 LPCM jpn (Japanese) 1057.423 1543 203898532 1269078
00090.M2TS 4608 (0x1200) 0x90 PGS rus (Russian) 1057.423 129 17110779 96551
<pre>
<---- END FORUMS PASTE ---->

QUICK SUMMARY:

Disc Title: Kokuriko-zaka Kara Disc 2Disc Size: 24 164 504 620 bytesProtection: AACSBD-Java: NoPlaylist: 00008.MPLSSize: 5 694 640 128 bytesLength: 0:17:37.556Total Bitrate: 43.08 MbpsVideo: MPEG-4 AVC Video / 39308 kbps / 1080i / 29.970 fps / 16:9 / High Profile 4.1Audio: Japanese / LPCM Audio / 2.0 / 48 kHz / 1536 kbps / 16-bitSubtitle: Russian / 129.436 kbps

********************PLAYLIST: 00010.MPLS********************

<--- BEGIN FORUMS PASTE --->
</pre>
Total Video
Title Codec Length Movie Size Disc Size Bitrate Bitrate Main Audio Track Secondary Audio Track
----- ------ ------- -------------- -------------- ------- ------- ------------------ ---------------------
00010.MPLS AVC 0:22:45 7420028928 24164504620 43.46 39.35 LPCM 2.0 1536Kbps (48kHz/16-bit)
DISC INFO:

Disc Title: Kokuriko-zaka Kara Disc 2
Disc Size: 24164504620 bytes
Protection: AACS
BD-Java: No
BDInfo: 0.5.8

PLAYLIST REPORT:

Name: 00010.MPLS
Length: 0:22:45.864 (h:m:s.ms)
Size: 7420028928 bytes
Total Bitrate: 43.46 Mbps

VIDEO:

Codec Bitrate Description
----- ------- -----------
MPEG-4 AVC Video 39352 kbps 1080i / 29.970 fps / 16:9 / High Profile 4.1

AUDIO:

Codec Language Bitrate Description
----- -------- ------- -----------
LPCM Audio Japanese 1536 kbps 2.0 / 48 kHz / 1536 kbps / 16-bit

SUBTITLES:

Codec Language Bitrate Description
----- -------- ------- -----------
Presentation Graphics Russian 439.701 kbps

FILES:

Name Time In Length Size Total Bitrate
---- ------- ------ ---- -------------
00091.M2TS 0:00:00.000 0:22:45.864 7420028928 43460

CHAPTERS:

Number Time In Length Avg Video Rate Max 1-Sec Rate Max 1-Sec Time Max 5-Sec Rate Max 5-Sec Time Max 10Sec Rate Max 10Sec Time Avg Frame Size Max Frame Size Max Frame Time
------ ------- ------ -------------- -------------- -------------- -------------- -------------- -------------- -------------- -------------- -------------- --------------
1 0:00:00.000 0:02:41.294 39351 kbps 45171 kbps 00:02:38.791 41281 kbps 00:02:34.787 40271 kbps 00:02:29.782 164091 bytes 638747 bytes 00:02:41.294
2 0:02:41.294 0:04:52.859 39354 kbps 47824 kbps 00:07:32.084 41406 kbps 00:07:28.147 40386 kbps 00:07:23.142 164139 bytes 638219 bytes 00:02:42.295
3 0:07:34.153 0:04:44.484 39364 kbps 51336 kbps 00:10:20.953 42137 kbps 00:10:16.949 40812 kbps 00:10:11.944 164180 bytes 638235 bytes 00:07:39.091
4 0:12:18.637 0:10:26.225 39347 kbps 46005 kbps 00:12:20.039 40704 kbps 00:12:43.362 40121 kbps 00:15:28.093 164111 bytes 639613 bytes 00:12:22.641
5 0:22:44.863 0:00:01.000 38628 kbps 0 kbps 00:00:00.000 0 kbps 00:00:00.000 0 kbps 00:00:00.000 166665 bytes 166666 bytes 00:22:44.896

STREAM DIAGNOSTICS:

File PID Type Codec Language Seconds Bitrate Bytes Packets
---- --- ---- ----- -------- -------------- -------------- ------------- -----
00091.M2TS 4113 (0x1011) 0x1B AVC 1365.731 39356 6718692591 36538098
00091.M2TS 4352 (0x1100) 0x80 LPCM jpn (Japanese) 1365.731 1543 263339736 1639044
00091.M2TS 4608 (0x1200) 0x90 PGS rus (Russian) 1365.731 440 75071439 423076
<pre>
<---- END FORUMS PASTE ---->

QUICK SUMMARY:

Disc Title: Kokuriko-zaka Kara Disc 2Disc Size: 24 164 504 620 bytesProtection: AACSBD-Java: NoPlaylist: 00010.MPLSSize: 7 420 028 928 bytesLength: 0:22:45.864Total Bitrate: 43.46 MbpsVideo: MPEG-4 AVC Video / 39352 kbps / 1080i / 29.970 fps / 16:9 / High Profile 4.1Audio: Japanese / LPCM Audio / 2.0 / 48 kHz / 1536 kbps / 16-bitSubtitle: Russian / 439.701 kbps

********************PLAYLIST: 00012.MPLS********************

<--- BEGIN FORUMS PASTE --->
</pre>
Total Video
Title Codec Length Movie Size Disc Size Bitrate Bitrate Main Audio Track Secondary Audio Track
----- ------ ------- -------------- -------------- ------- ------- ------------------ ---------------------
00012.MPLS AVC 0:05:45 1854597120 24164504620 42.96 39.32 LPCM 2.0 1536Kbps (48kHz/16-bit)
DISC INFO:

Disc Title: Kokuriko-zaka Kara Disc 2
Disc Size: 24164504620 bytes
Protection: AACS
BD-Java: No
BDInfo: 0.5.8

PLAYLIST REPORT:

Name: 00012.MPLS
Length: 0:05:45.345 (h:m:s.ms)
Size: 1854597120 bytes
Total Bitrate: 42.96 Mbps

VIDEO:

Codec Bitrate Description
----- ------- -----------
MPEG-4 AVC Video 39323 kbps 1080i / 29.970 fps / 16:9 / High Profile 4.1

AUDIO:

Codec Language Bitrate Description
----- -------- ------- -----------
LPCM Audio Japanese 1536 kbps 2.0 / 48 kHz / 1536 kbps / 16-bit

SUBTITLES:

Codec Language Bitrate Description
----- -------- ------- -----------
Presentation Graphics Russian 7.971 kbps

FILES:

Name Time In Length Size Total Bitrate
---- ------- ------ ---- -------------
00092.M2TS 0:00:00.000 0:05:45.345 1854597120 42962

CHAPTERS:

Number Time In Length Avg Video Rate Max 1-Sec Rate Max 1-Sec Time Max 5-Sec Rate Max 5-Sec Time Max 10Sec Rate Max 10Sec Time Avg Frame Size Max Frame Size Max Frame Time
------ ------- ------ -------------- -------------- -------------- -------------- -------------- -------------- -------------- -------------- -------------- --------------
1 0:00:00.000 0:05:44.344 39325 kbps 53224 kbps 00:00:28.261 42448 kbps 00:00:24.257 40934 kbps 00:00:19.252 164003 bytes 637303 bytes 00:00:29.062
2 0:05:44.344 0:00:01.000 38628 kbps 0 kbps 00:00:00.000 0 kbps 00:00:00.000 0 kbps 00:00:00.000 166665 bytes 166666 bytes 00:05:44.377

STREAM DIAGNOSTICS:

File PID Type Codec Language Seconds Bitrate Bytes Packets
---- --- ---- ----- -------- -------------- -------------- ------------- -----
00092.M2TS 4113 (0x1011) 0x1B AVC 345.212 39338 1697506694 9231270
00092.M2TS 4352 (0x1100) 0x80 LPCM jpn (Japanese) 345.212 1543 66583480 414420
00092.M2TS 4608 (0x1200) 0x90 PGS rus (Russian) 345.212 8 344112 2064
<pre>
<---- END FORUMS PASTE ---->

QUICK SUMMARY:

Disc Title: Kokuriko-zaka Kara Disc 2Disc Size: 24 164 504 620 bytesProtection: AACSBD-Java: NoPlaylist: 00012.MPLSSize: 1 854 597 120 bytesLength: 0:05:45.345Total Bitrate: 42.96 MbpsVideo: MPEG-4 AVC Video / 39323 kbps / 1080i / 29.970 fps / 16:9 / High Profile 4.1Audio: Japanese / LPCM Audio / 2.0 / 48 kHz / 1536 kbps / 16-bitSubtitle: Russian / 7.971 kbps
</pre>
[url]...4860441[/url]
[url]...4718635[/url]
[url]...4621164[/url]
Blu-ray
GHIBLI GA IPPAI COLLECTION

1ST WAVE - 2010
07/14/2010 [url=...4629918] [/url] (1984)
12/22/2010 [url=...3690943] [/url] (1986)
12/22/2010 [url=...4119317] [/url] (1999)

2ND WAVE - 2011
06/17/2011 [url=...5071976] [/url] (2010)
07/20/2011 [url=...4178733]ظ [/url] (1995)

3RD WAVE - 2011
11/16/2011 [url=...3875703] [/url] (2004)
11/16/2011 [url=...4465304] [/url] (2006)
11/16/2011 [] (2008)

4TH WAVE - 2012
06/20/2012 [url=...5135718] [/url] (2011)
07/18/2012 [url=...4766434] [/url] (1988)
07/18/2012 [url=...4651642] [/url] (1988)

5TH WAVE - 2012
12/04/2012 [url=...4901371] [/url] (1989)
12/04/2012 (1991)

6TH WAVE - 2013
07/17/2013 (1992)
11/06/2013 [url=...4936128] [/url] (1994)

7TH WAVE - 2013
12/04/2013 [url=...4851914] [/url] (1997)
12/04/2013 [url=...5006347] + [/url] (2002)

8TH WAVE - 2014
06/18/2014 (2013)
07/16/2014 [url=...5043266] [/url] (2001)
08/06/2014 [url=...5117796] III: [/url] (1979)

9TH WAVE - 2014-2015
12/03/2014 [url=...4989310] [/url] (2013)
03/18/2015 (2014)
07/17/2015 (1993)

ORIGINAL BLU-RAY RELEASES

07/04/2007 [url=...2249223] [/url] (2007)
12/19/2007 [url=...4818346] : [/url] (2007)
07/03/2009 [url=...3692012] ""[/url] (2008)
11/17/2010 [Theatrical Feature] (2010)
05/21/2014 [url=...4929876] [/url] (2014)
07/02/2014 [url=...4979621] - [Complete Box Bonus Disc][/url] (2013)
10/27/2014 [url=...4978082]On Your Mark[/url] (1995)
07/17/2015 ! (1972)
07/17/2015 (1982)

NON-GHIBLI BLU-RAY RELEASES

07/25/2008 [url=...4722800] [/url] (1981)
07/25/2008 [url=...4612785] [/url] (1984)
" "
, "" " "


 ·  , , FAQ-
:  [ 19--2015 02:30 ]

  

.torrent

.torrent 214 KB


: 68.95 GB
(hash) : d79d1acf3d46ec332f72b690f635c8cedd372ba2
:
··
...

, Kokuriko-zaka Kara

S L
| HD Rips ··  / Kokuriko Zaka Kara / From Up on Poppy Hill [Movie] [ ] [RUS(int), JAP+SUB] [2011 ., , , , BDRemux] [1080p] Galfimbul 2973404858527.69 GB 0 0 1415046907

23:35

3--14

| Rips ··  / Kokuriko Zaka Kara / From Up on Poppy Hill [Movie] [ ] [RUS(int), JAP+SUB] [2011 ., , , , BDRip] [720p] [HD] Galfimbul 33756873703.14 GB 0 0 1409747453

15:30

3--14

| Rips ··  / Kokuriko Saka kara / Coquelicot Saka kara / Kokuriko Zaka kara / From Up on Poppy Hill [ ] [Movie] [ ] [RUS(ext), JAP+SUB] [2011 ., , , , , , BDRip-AVC] Galfimbul 14963412271.39 GB 0 0 1343504640

22:44

28--12

| Blu-Ray BDRemux ··  / Kokuriko Saka kara / Kokuriko Zaka Kara / From Up on Poppy Hill [Movie] [ ] [JAP+SUB] [2011 ., , , , BDRemux] [1080p] Polarnik 2542931267223.68 GB 0 0 1341315060

14:31

3--12

| Rips ··  / / From Up On Poppy Hill / Kokuriko-Zaka Kara [Movie] [ ] [RUS(int), JAP, SUB] [2011 ., , BDRip-AVC] Galfimbul 23398623712.18 GB 0 0 1355396040

13:54

13--12

| Rips ··  / From Up on Poppy Hill / Coquelicot Saka kara / Kokuriko Saka kara / Kokuriko Zaka kara ( ) [Movie] [ ] [RUS(int), JAP+SUB] [2011 ., , , , BDRip] [HWP] Galfimbul 14596575691.36 GB 0 0 1342515540

11:59

17--12

| HD Rips ··  / From Up on Poppy Hill / Kokuriko Saka kara / Kokuriko Zaka kara ( ) [Movie] [ ] [RUS(ext), JAP+SUB] [2011 ., , , , BDRip] [1080p] Galfimbul 99739412019.29 GB 0 0 1342724940

22:09

19--12

| HD Rips ··  / From Up on Poppy Hill / Kokuriko Saka kara / Kokuriko Zaka kara ( ) [Movie] [ ] [RUS(ext), JAP+SUB] [2011 ., , , , BDRip] [720p] Galfimbul 34886180013.25 GB 0 0 1342724880

22:08

19--12

Kokuriko-zaka Kara . !

!